Tags
Language
Tags

Magic Knight Rayearth (1994-1995)

Posted By:
Magic Knight Rayearth (1994-1995)

Magic Knight Rayearth (1994-1995)
BD-Remux | m2ts | 1920x1080 | H264@~40 Mbps | 49x ~ 24mn | 49x ~5.6 Gb
Japanese PCM@1536 Kbps | 2 channels | Subtitles: none
Genre: action, comedy, fantasy, magic, magical girl, mecha, parallel universe, science fiction, shoujo, super deformed


Description:

Magic Knight Rayearth begins when three junior high school girls hear a voice asking them to save a world called Cephiro. The voice belongs to Princess Emeraude, the Pillar whose will maintains the peace of this magical world where belief is power. But the peace in Cephiro is now threatened as Princess Emeraude is imprisoned and monsters begin to invade the land. With her last bit of strength, the princess summons forth the three girls destined to become the Magic Knights in the hopes of saving her world.



01. The Birth of the Legendary Magic Knights
02. Master Smith Presea of the Forest of Silence
03. Ferio the Young, Handsome, Mysterious Swordsman
04. Alcyone, the Vengeful Sorceress
05. Escudo, the Legendary Ore
06. Lives at Stake - Presea`s Weapons
07. Ferio in Desperation - A Love in the Desert
08. The Terrifying Trap of Summoner Ascot
09. The Magic Knights` Greatest Crisis
10. The Revival of Selece, the Legendary Mashin
11. The Mashin Legend of Cephiro, Another World
12. Fearsome Illusionist Caldina
13. The Most Valuable Thing in This World
14. Hikaru, Umi, and Fuu`s Unyielding Wish
15. The Second Mashin: Windam, Lord of the Skies
16. A Powerful Foe! Lafarga the Swordmaster
17. The Truth about Inouva, and Return of Memories
18. The Last Mashin: RayEarth, Lord of Fire
19. Showdown! The Magic Knights Versus Zagato
20. The Unbelievable Truth about the Legendary Magic Knights
21. A Departure and New Ties
22. Cephiro and the Three Countries
23. Autozam`s Invasion and Lantis
24. Magic Knights and the Battleship NSX
25. Hikaru and Nova in Her Dreams
26. Magic Knights and Aska of Fahren
27. The Secret of the Pillar of Cephiro
28. Hikaru and Lantis` Dangerous Journey
29. Eagle and the Captured Hikaru
30. Nova and Regalia, Mashin of the Devil
31. Chizeta`s Mobile Fortress, and a Powerless Hikaru
32. Umi/Fuu and Fahren/Chizeta
33. Hikaru`s Wish and Presea`s Secret
34. Hikaru and Friendships Torn Apart
35. Umi and the Ambition of Tarta and Tatra
36. Fuu versus Aska! Life or Death Archery Match
37. Revive, Hikaru`s Sword!
38. Eagle`s All-out Attack on Cephiro Castle
39. Chaotic War at Cephiro Castle
40. Magic Knights and Their Momentary Respite
41. Nova`s Battle, and the Monster`s Identity
42. Giant Sang Yung versus the NSX
43. The Crown Room and the Pillar`s Memory
44. A Serious Match - Umi vs. Tarta & Tatra
45. Cornered! Lantis` Crisis
46. Hikaru Shocked! The Truth About Nova
47. Who Is the True Pillar!? Hikaru, or Eagle!?
48. An Endless Battle
49. The Path to Victory! A Tomorrow that a Believing Heart Opens!



Video
ID : 4113 (0x1011)
Menu ID : 1 (0x1)
Format : AVC
Format/Info : Advanced Video Codec
Format profile : High@L4.1
Format settings : CABAC / 4 Ref Frames
Format settings, CABAC : Yes
Format settings, RefFrames : 4 frames
Codec ID : 27
Duration : 24 min 31 s
Bit rate mode : Variable
Bit rate : 29.7 Mb/s
Maximum bit rate : 40.0 Mb/s
Width : 1 920 pixels
Height : 1 080 pixels
Display aspect ratio : 16:9
Frame rate : 23.976 (24000/1001) FPS
Color space : YUV
Chroma subsampling : 4:2:0
Bit depth : 8 bits
Scan type : Progressive
Bits/(Pixel*Frame) : 0.598
Stream size : 5.09 GiB (91%)

Audio
ID : 4352 (0x1100)
Menu ID : 1 (0x1)
Format : PCM
Format settings : Big / Signed
Muxing mode : Blu-ray
Codec ID : 128
Duration : 24 min 31 s
Bit rate mode : Constant
Bit rate : 1 536 kb/s
Channel(s) : 2 channels
Channel positions : Front: L R
Sampling rate : 48.0 kHz
Bit depth : 16 bits
Stream size : 269 MiB (5%)


Screenshots

Magic Knight Rayearth (1994-1995)

Magic Knight Rayearth (1994-1995)

Magic Knight Rayearth (1994-1995)


My publications | Rss Channel