Tags
Language
Tags

High School DxD Hero (2018)

Posted By:
High School DxD Hero (2018)

High School DxD Hero (2018)
WEBRip | MKV | 1920x1080 | H264@5959 Kbps | 13x ~ 25mn | 13x ~935 Mb
日本語 AAC@128 Kbps | 2 channels | Subtitles: English
Genre: action, contemporary fantasy, demon, ecchi, fantasy, harem, large breasts, magic, pantsu, romance, shounen


Description:
A war between heaven and hell is raging on Earth—and hormonal fury is raging in Issei's pants. Enter curvy redhead Rias, president of The Occult Research Club: a club that doesn't actually research the occult. They are the occult—and Rias is a Devil!






01. Holiness Behind the Gym
02. That`s Right, Let`s Go to Kyoto
03. School Trip, an Abrupt Attack
04. The Party of Heroes
05. Showdown! Gremory Family vs. Hero Faction in Kyoto
06. My Potential Released!
07. The School Trip Is in Pandemonium
08. We Are Preparing for the School Festival!
09. A Girl`s Heart Is Complicated
10. The Deciding Battle of the Strongest Youth, Begins!
11. As a Family Member of Rias Gremory
12. Max vs Max. Power `Man Versus Man`
13. Maximum vs Power.Maximum `Lion Heart of the School Festival`


General
Format : Matroska
Format version : Version 4 / Version 2
File size : 1.01 GiB
Duration : 23 min 47 s
Overall bit rate : 6 059 kb/s
Encoded date : UTC 2018-04-12 04:38:37
Writing application : mkvmerge v17.0.0 ('Be Ur Friend') 64-bit
Writing library : libebml v1.3.5 + libmatroska v1.4.8

Video
ID : 1
Format : AVC
Format/Info : Advanced Video Codec
Format profile : High@L4
Format settings : CABAC / 4 Ref Frames
Format settings, CABAC : Yes
Format settings, RefFrames : 4 frames
Codec ID : V_MPEG4/ISO/AVC
Duration : 23 min 40 s
Bit rate : 5 959 kb/s
Width : 1 920 pixels
Height : 1 080 pixels
Display aspect ratio : 16:9
Frame rate mode : Constant
Frame rate : 23.976 (24000/1001) FPS
Color space : YUV
Chroma subsampling : 4:2:0
Bit depth : 8 bits
Scan type : Progressive
Bits/(Pixel*Frame) : 0.120
Stream size : 1 009 MiB (98%)
Writing library : x264 core 142
Encoding settings : cabac=1 / ref=4 / deblock=1:1:1 / analyse=0x3:0x113 / me=umh / subme=8 / psy=1 / psy_rd=0.40:0.00 / mixed_ref=1 / me_range=16 / chroma_me=1 / trellis=1 / 8x8dct=1 / cqm=0 / deadzone=21,11 / fast_pskip=1 / chroma_qp_offset=-2 / threads=12 / lookahead_threads=2 / sliced_threads=0 / nr=0 / decimate=1 / interlaced=0 / bluray_compat=0 / constrained_intra=0 / bframes=3 / b_pyramid=2 / b_adapt=2 / b_bias=0 / direct=3 / weightb=1 / open_gop=0 / weightp=2 / keyint=48 / keyint_min=24 / scenecut=40 / intra_refresh=0 / rc_lookahead=48 / rc=crf / mbtree=1 / crf=15.0 / qcomp=0.60 / qpmin=0 / qpmax=69 / qpstep=4 / vbv_maxrate=8000 / vbv_bufsize=12000 / crf_max=0.0 / nal_hrd=none / filler=0 / ip_ratio=1.40 / aq=1:0.60
Default : Yes
Forced : No

Audio
ID : 2
Format : AAC
Format/Info : Advanced Audio Codec
Format profile : LC
Codec ID : A_AAC-2
Duration : 23 min 40 s
Bit rate : 128 kb/s
Channel(s) : 2 channels
Channel positions : Front: L R
Sampling rate : 44.1 kHz
Frame rate : 43.066 FPS (1024 SPF)
Compression mode : Lossy
Delay relative to video : -83 ms
Stream size : 21.7 MiB (2%)
Default : Yes
Forced : No

Text
ID : 3
Format : ASS
Codec ID : S_TEXT/ASS
Codec ID/Info : Advanced Sub Station Alpha
Duration : 23 min 46 s
Bit rate : 123 b/s
Count of elements : 356
Compression mode : Lossless
Stream size : 21.4 KiB (0%)
Title : English(US)
Language : English
Default : Yes
Forced : No


Screenshots

High School DxD Hero (2018)

High School DxD Hero (2018)

High School DxD Hero (2018)


My publications | Rss Channel