Tags
Language
Tags

Black Clover (2017) (148-152)

Posted By: Lebedev30
Black Clover (2017) (148-152)

Black Clover (2017) (148-152)
WEBRip | MKV | 1920x1080 | H264@8000 Kbps | 5x ~ 25mn | 5x ~1.3 Gb
日本語 AAC@128 Kbps | 2 channels | Subtitles: English, العربية, Deutsch, Français, Español, Italiano, Português, Русский
Genre: action, fantasy, magic, shounen


Description:
* Based on a fantasy shounen manga series written and illustrated by Tabata Yuuki.

Asta and Yuno are orphans who were raised together from birth after being abandoned at a church orphanage on the outskirts of the Clover Kingdom at the same time. In a world where everyone has the natural ability to perform a kind of magic, or a Magical Power (魔力 Maryoku), Asta is the only person born without any, leading him to train physically as compensation. Conversely, Yuno was born as a prodigy with immense magical power and the talent to control it. When they are 15, Asta and Yuno are granted the ability to become wizards known as Magic Knights by receiving grimoires, with which all magical power is channeled. Yuno is granted a wind-based grimoire held by the kingdom's first Wizard King, while Asta does not receive one. However, when a thief incapacitates Yuno to try and sell his grimoire on the black market, Asta summons his own grimoire, which contains the rare and mysterious Anti-Magic (enabling him to cancel out all magical effects), to defeat him. The story then follows the two boys in their time within separate squads in the Magic Knights, as they build a friendly rivalry to try and become the Wizard King themselves.






148. Becoming the Light That Shines Through the Darkness
149. Two Things We Need to Find
150. The Maidens` Challenge
151. Clash! The Battle of the Magic Knights Squad Captains
152. To Tomorrow!


General
Format : Matroska
Format version : Version 4 / Version 2
File size : 1.36 GiB
Duration : 23 min 55 s
Overall bit rate : 8 127 kb/s
Encoded date : UTC 2020-10-20 10:26:45
Writing application : mkvmerge v48.0.0 ('Fortress Around Your Heart') 64-bit
Writing library : libebml v1.4.0 + libmatroska v1.6.0
Attachments : Arial_0.ttf / calibri.ttf / comic_0.ttf / georgia_0.ttf / impact_0.ttf / Tahoma_0.ttf / times_0.ttf / trebuc_0.ttf / verdana_0.ttf / AdobeArabic-Bold.otf

Video
ID : 1
Format : AVC
Format/Info : Advanced Video Codec
Format profile : High@L4
Format settings : CABAC / 4 Ref Frames
Format settings, CABAC : Yes
Format settings, RefFrames : 4 frames
Codec ID : V_MPEG4/ISO/AVC
Duration : 23 min 53 s
Bit rate : 8 000 kb/s
Width : 1 920 pixels
Height : 1 080 pixels
Display aspect ratio : 16:9
Frame rate mode : Constant
Frame rate : 23.976 (24000/1001) FPS
Color space : YUV
Chroma subsampling : 4:2:0
Bit depth : 8 bits
Scan type : Progressive
Bits/(Pixel*Frame) : 0.161
Stream size : 1.33 GiB (98%)
Writing library : x264 core 161 r3018 db0d417
Encoding settings : cabac=1 / ref=4 / deblock=1:1:1 / analyse=0x3:0x113 / me=hex / subme=8 / psy=1 / psy_rd=0.40:0.00 / mixed_ref=1 / me_range=16 / chroma_me=1 / trellis=2 / 8x8dct=1 / cqm=0 / deadzone=21,11 / fast_pskip=1 / chroma_qp_offset=-2 / threads=12 / lookahead_threads=2 / sliced_threads=0 / nr=0 / decimate=1 / interlaced=0 / bluray_compat=0 / constrained_intra=0 / bframes=0 / weightp=2 / keyint=96 / keyint_min=48 / scenecut=40 / intra_refresh=0 / rc_lookahead=48 / rc=2pass / mbtree=1 / bitrate=8000 / ratetol=1.0 / qcomp=0.60 / qpmin=0 / qpmax=69 / qpstep=4 / cplxblur=20.0 / qblur=0.5 / vbv_maxrate=12000 / vbv_bufsize=18000 / nal_hrd=none / filler=0 / ip_ratio=1.40 / aq=1:0.60
Language : Japanese
Default : Yes
Forced : No

Audio
ID : 2
Format : AAC
Format/Info : Advanced Audio Codec
Format profile : LC
Codec ID : A_AAC-2
Duration : 23 min 54 s
Bit rate : 128 kb/s
Channel(s) : 2 channels
Channel positions : Front: L R
Sampling rate : 44.1 kHz
Frame rate : 43.066 FPS (1024 SPF)
Compression mode : Lossy
Stream size : 21.9 MiB (2%)
Language : Japanese
Default : Yes
Forced : No

Text #1
ID : 3
Format : ASS
Codec ID : S_TEXT/ASS
Codec ID/Info : Advanced Sub Station Alpha
Duration : 23 min 48 s
Bit rate : 106 b/s
Count of elements : 307
Compression mode : Lossless
Stream size : 18.5 KiB (0%)
Title : English(US)
Language : English
Default : Yes
Forced : No

Text #2
ID : 4
Format : ASS
Codec ID : S_TEXT/ASS
Codec ID/Info : Advanced Sub Station Alpha
Duration : 23 min 48 s
Bit rate : 124 b/s
Count of elements : 305
Compression mode : Lossless
Stream size : 21.7 KiB (0%)
Title : Arabic
Language : Arabic
Default : No
Forced : No

Text #3
ID : 5
Format : ASS
Codec ID : S_TEXT/ASS
Codec ID/Info : Advanced Sub Station Alpha
Duration : 23 min 47 s
Bit rate : 126 b/s
Count of elements : 349
Compression mode : Lossless
Stream size : 22.0 KiB (0%)
Title : Francais(France)
Language : French
Default : No
Forced : No

Text #4
ID : 6
Format : ASS
Codec ID : S_TEXT/ASS
Codec ID/Info : Advanced Sub Station Alpha
Duration : 23 min 47 s
Bit rate : 119 b/s
Count of elements : 357
Compression mode : Lossless
Stream size : 20.9 KiB (0%)
Title : Deutsch
Language : German
Default : No
Forced : No

Text #5
ID : 7
Format : ASS
Codec ID : S_TEXT/ASS
Codec ID/Info : Advanced Sub Station Alpha
Duration : 23 min 48 s
Bit rate : 116 b/s
Count of elements : 313
Compression mode : Lossless
Stream size : 20.2 KiB (0%)
Title : Italiano
Language : Italian
Default : No
Forced : No

Text #6
ID : 8
Format : ASS
Codec ID : S_TEXT/ASS
Codec ID/Info : Advanced Sub Station Alpha
Duration : 23 min 49 s
Bit rate : 97 b/s
Count of elements : 293
Compression mode : Lossless
Stream size : 17.0 KiB (0%)
Title : Espanol(Espana)
Language : Spanish
Default : No
Forced : No

Text #7
ID : 9
Format : ASS
Codec ID : S_TEXT/ASS
Codec ID/Info : Advanced Sub Station Alpha
Duration : 23 min 49 s
Bit rate : 96 b/s
Count of elements : 293
Compression mode : Lossless
Stream size : 16.8 KiB (0%)
Title : Espanol
Language : Spanish
Default : No
Forced : No

Text #8
ID : 10
Format : ASS
Codec ID : S_TEXT/ASS
Codec ID/Info : Advanced Sub Station Alpha
Duration : 23 min 48 s
Bit rate : 119 b/s
Count of elements : 306
Compression mode : Lossless
Stream size : 20.8 KiB (0%)
Title : Portugues(Brasil)
Language : Portuguese
Default : No
Forced : No

Text #9
ID : 11
Format : ASS
Codec ID : S_TEXT/ASS
Codec ID/Info : Advanced Sub Station Alpha
Duration : 23 min 47 s
Bit rate : 184 b/s
Count of elements : 364
Compression mode : Lossless
Stream size : 32.1 KiB (0%)
Title : Russian
Language : Russian
Default : No
Forced : No


Screenshots

Black Clover (2017) (148-152)

Black Clover (2017) (148-152)

Black Clover (2017) (148-152)


My publications | Rss Channel