Tags
Language
Tags

Mahouka Koukou no Rettousei: Raihousha Hen (2020) (5-7)

Posted By: Lebedev30
Mahouka Koukou no Rettousei: Raihousha Hen (2020) (5-7)

Mahouka Koukou no Rettousei: Raihousha Hen (2020) (5-7)
WEBRip | MKV | 1920x1080 | H264@8000 Kbps | 3x ~ 25mn | 3x ~1.3 Gb
日本語 AAC@253 Kbps | 2 channels | Subtitles: English


Description:
* Based on the light novel series by the same name written by Satou Tsutomu and illustrated by Ishida Kana.

Miyuki's classmate Kitayama Shizuku is on her way to study abroad. For magicians, this is normally impossible, since allowing the genes of someone who can use magic outside their home country's borders is tantamount to giving up national secrets. But it's allowed to happen in one case-exchange programs. And that's how Angelina has arrived in Japan from the USNA to study at First High. But it seems she's a part of something much bigger than a simple cultural exchange!




05. Episode 5
06. Episode 6
07. Episode 7


General
Format : Matroska
Format version : Version 4 / Version 2
File size : 1.36 GiB
Duration : 23 min 52 s
Overall bit rate : 8 140 kb/s
Encoded date : UTC 2020-11-01 15:20:49
Writing application : mkvmerge v48.0.0 ('Fortress Around Your Heart') 64-bit
Writing library : libebml v1.4.0 + libmatroska v1.6.0
Attachments : OpenSans-ExtraBold.ttf / OpenSans-Italic.ttf / OpenSans-Light.ttf / OpenSans-Regular.ttf / OpenSans-Semibold.ttf / MIAMA.OTF

Video
ID : 1
Format : AVC
Format/Info : Advanced Video Codec
Format profile : High@L4
Format settings : CABAC / 4 Ref Frames
Format settings, CABAC : Yes
Format settings, RefFrames : 4 frames
Codec ID : V_MPEG4/ISO/AVC
Duration : 23 min 52 s
Bit rate : 8 000 kb/s
Width : 1 920 pixels
Height : 1 080 pixels
Display aspect ratio : 16:9
Frame rate mode : Constant
Frame rate : 23.976 (24000/1001) FPS
Color space : YUV
Chroma subsampling : 4:2:0
Bit depth : 8 bits
Scan type : Progressive
Bits/(Pixel*Frame) : 0.161
Stream size : 1.31 GiB (97%)
Writing library : x264 core 157 r2948 dada181
Encoding settings : cabac=1 / ref=1 / deblock=1:0:0 / analyse=0x3:0x113 / me=hex / subme=7 / psy=1 / psy_rd=1.00:0.00 / mixed_ref=0 / me_range=16 / chroma_me=1 / trellis=1 / 8x8dct=1 / cqm=0 / deadzone=21,11 / fast_pskip=1 / chroma_qp_offset=-2 / threads=24 / lookahead_threads=4 / sliced_threads=0 / nr=0 / decimate=1 / interlaced=0 / bluray_compat=0 / constrained_intra=0 / bframes=2 / b_pyramid=2 / b_adapt=1 / b_bias=0 / direct=1 / weightb=1 / open_gop=0 / weightp=2 / keyint=48 / keyint_min=4 / scenecut=40 / intra_refresh=0 / rc_lookahead=40 / rc=cbr / mbtree=1 / bitrate=8000 / ratetol=1.0 / qcomp=0.60 / qpmin=0 / qpmax=69 / qpstep=4 / vbv_maxrate=8000 / vbv_bufsize=24000 / nal_hrd=none / filler=0 / ip_ratio=1.40 / aq=1:1.00
Language : Japanese
Default : Yes
Forced : No

Audio
ID : 2
Format : AAC
Format/Info : Advanced Audio Codec
Format profile : LC
Codec ID : A_AAC-2
Duration : 23 min 52 s
Bit rate : 253 kb/s
Channel(s) : 2 channels
Channel positions : Front: L R
Sampling rate : 48.0 kHz
Frame rate : 46.875 FPS (1024 SPF)
Compression mode : Lossy
Delay relative to video : -43 ms
Stream size : 43.3 MiB (3%)
Language : Japanese
Default : Yes
Forced : No

Text
ID : 3
Format : ASS
Codec ID : S_TEXT/ASS
Codec ID/Info : Advanced Sub Station Alpha
Duration : 23 min 39 s
Bit rate : 98 b/s
Count of elements : 312
Compression mode : Lossless
Stream size : 17.0 KiB (0%)
Title : English(US)
Language : English
Default : Yes
Forced : No


Screenshots

Mahouka Koukou no Rettousei: Raihousha Hen (2020) (5-7)

Mahouka Koukou no Rettousei: Raihousha Hen (2020) (5-7)

Mahouka Koukou no Rettousei: Raihousha Hen (2020) (5-7)


My publications | Rss Channel