Tags
Language
Tags

Ochikobore Fruit Tart (2020) (1-6)

Posted By: Lebedev30
Ochikobore Fruit Tart (2020) (1-6)

Ochikobore Fruit Tart (2020) (1-6)
WEBRip | MKV | 1920x1080 | H264@7444 Kbps | 6x ~ 25mn | 6x ~1.2 Gb
日本語 AAC@253 Kbps | 2 channels | Subtitles: English
Genre: idol, the arts


Description:
* Based on a slice of life idol seinen manga series by Hamayumiba Sou.

Fourth dormitory of the Rat Production (commonly known as Nezumi-sou), the place where dropout idol girls live; the former child actor Sekino Roko, musician Nukui Hayu, and model Maehara Nina. Sakura Ino, who always dreamed of becoming an idol, moves in. At the same time the decision is made to demolish the dormitory. Due to the project launched by the manager Kajino Hoho, "Ochikobore Fruit Tart," occupants of the dormitory form a new idol group called "Fruit Tart," and start their activities in order to repay a one hundred million yen debt.






01. We`re Off to Higako!
02. A Rocking New Semester!
03. Our First Concert!
04. A New Face!
05. Could Be a Stalker?
06. The Pervert Appears!


General
Format : Matroska
Format version : Version 4 / Version 2
File size : 1.28 GiB
Duration : 23 min 49 s
Overall bit rate : 7 712 kb/s
Encoded date : UTC 2020-10-13 09:19:49
Writing application : mkvmerge v48.0.0 ('Fortress Around Your Heart') 64-bit
Writing library : libebml v1.4.0 + libmatroska v1.6.0
Attachments : OpenSans-Bold.ttf / OpenSans-BoldItalic.ttf / OpenSans-ExtraBold.ttf / OpenSans-ExtraBoldItalic.ttf / OpenSans-Italic.ttf / OpenSans-Light.ttf / OpenSans-LightItalic.ttf / OpenSans-Regular.ttf / OpenSans-Semibold.ttf / OpenSans-SemiboldItalic.ttf

Video
ID : 1
Format : AVC
Format/Info : Advanced Video Codec
Format profile : High@L4
Format settings : CABAC / 4 Ref Frames
Format settings, CABAC : Yes
Format settings, RefFrames : 4 frames
Codec ID : V_MPEG4/ISO/AVC
Duration : 23 min 49 s
Bit rate : 7 444 kb/s
Nominal bit rate : 8 000 kb/s
Width : 1 920 pixels
Height : 1 080 pixels
Display aspect ratio : 16:9
Frame rate mode : Constant
Frame rate : 23.976 (24000/1001) FPS
Color space : YUV
Chroma subsampling : 4:2:0
Bit depth : 8 bits
Scan type : Progressive
Bits/(Pixel*Frame) : 0.150
Stream size : 1.24 GiB (97%)
Writing library : x264 core 157 r2948 dada181
Encoding settings : cabac=1 / ref=1 / deblock=1:0:0 / analyse=0x3:0x113 / me=hex / subme=7 / psy=1 / psy_rd=1.00:0.00 / mixed_ref=0 / me_range=16 / chroma_me=1 / trellis=1 / 8x8dct=1 / cqm=0 / deadzone=21,11 / fast_pskip=1 / chroma_qp_offset=-2 / threads=24 / lookahead_threads=4 / sliced_threads=0 / nr=0 / decimate=1 / interlaced=0 / bluray_compat=0 / constrained_intra=0 / bframes=2 / b_pyramid=2 / b_adapt=1 / b_bias=0 / direct=1 / weightb=1 / open_gop=0 / weightp=2 / keyint=48 / keyint_min=4 / scenecut=40 / intra_refresh=0 / rc_lookahead=40 / rc=cbr / mbtree=1 / bitrate=8000 / ratetol=1.0 / qcomp=0.60 / qpmin=0 / qpmax=69 / qpstep=4 / vbv_maxrate=8000 / vbv_bufsize=24000 / nal_hrd=none / filler=0 / ip_ratio=1.40 / aq=1:1.00
Language : Japanese
Default : Yes
Forced : No

Audio
ID : 2
Format : AAC
Format/Info : Advanced Audio Codec
Format profile : LC
Codec ID : A_AAC-2
Duration : 23 min 49 s
Bit rate : 253 kb/s
Channel(s) : 2 channels
Channel positions : Front: L R
Sampling rate : 48.0 kHz
Frame rate : 46.875 FPS (1024 SPF)
Compression mode : Lossy
Delay relative to video : -43 ms
Stream size : 43.2 MiB (3%)
Language : Japanese
Default : Yes
Forced : No

Text
ID : 3
Format : ASS
Codec ID : S_TEXT/ASS
Codec ID/Info : Advanced Sub Station Alpha
Duration : 23 min 29 s
Bit rate : 151 b/s
Count of elements : 443
Compression mode : Lossless
Stream size : 26.1 KiB (0%)
Title : English(US)
Language : English
Default : Yes
Forced : No


Screenshots

Ochikobore Fruit Tart (2020) (1-6)

Ochikobore Fruit Tart (2020) (1-6)

Ochikobore Fruit Tart (2020) (1-6)


My publications | Rss Channel