Tags
Language
Tags

Sore dake ga Neck (2020) (1-6)

Posted By: Lebedev30
Sore dake ga Neck (2020) (1-6)

Sore dake ga Neck (2020) (1-6)
WEBRip | MKV | 1920x1080 | H264@8000 Kbps | 6x ~ 4mn | 6x ~200 Mb
日本語 AAC@128 Kbps | 2 channels | Subtitles: العربية, English, Español, Português, Русский, Italiano, Deutsch, Français
Genre: Animation







01. The Bottleneck of Mr. Otsuka
02. The Bottleneck of Mr. Oda
03. The Bottleneck of Store Manager
04. The Bottleneck of Miss. Tabata
05. The Bottleneck of Mr. Adam
06. The Bottleneck of Mr. Muto


General
Format : Matroska
Format version : Version 4 / Version 2
File size : 213 MiB
Duration : 3 min 36 s
Overall bit rate : 8 279 kb/s
Encoded date : UTC 2020-10-12 18:39:46
Writing application : mkvmerge v48.0.0 ('Fortress Around Your Heart') 64-bit
Writing library : libebml v1.4.0 + libmatroska v1.6.0
Attachments : andalemo.ttf / Arial.ttf / arialbd.ttf / arialbi.ttf / ariali.ttf / ariblk.TTF / comic.ttf / comicbd.ttf / cour.ttf / courbd.ttf / courbi.ttf / couri.ttf / georgia.ttf / georgiab.ttf / georgiai.ttf / georgiaz.ttf / impact.ttf / Tahoma.ttf / times.ttf / timesbd.ttf / timesbi.ttf / timesi.ttf / trebuc.ttf / trebucbd.ttf / trebucbi.ttf / trebucit.ttf / AdobeArabic-Bold.otf

Video
ID : 1
Format : AVC
Format/Info : Advanced Video Codec
Format profile : High@L4
Format settings : CABAC / 4 Ref Frames
Format settings, CABAC : Yes
Format settings, RefFrames : 4 frames
Format settings, GOP : M=1, N=48
Codec ID : V_MPEG4/ISO/AVC
Duration : 3 min 36 s
Bit rate : 8 000 kb/s
Width : 1 920 pixels
Height : 1 080 pixels
Display aspect ratio : 16:9
Frame rate mode : Constant
Frame rate : 23.976 (24000/1001) FPS
Color space : YUV
Chroma subsampling : 4:2:0
Bit depth : 8 bits
Scan type : Progressive
Bits/(Pixel*Frame) : 0.161
Stream size : 203 MiB (95%)
Writing library : x264 core 142
Encoding settings : cabac=1 / ref=4 / deblock=1:1:1 / analyse=0x3:0x113 / me=umh / subme=8 / psy=1 / psy_rd=0.40:0.00 / mixed_ref=1 / me_range=16 / chroma_me=1 / trellis=1 / 8x8dct=1 / cqm=0 / deadzone=21,11 / fast_pskip=1 / chroma_qp_offset=-2 / threads=12 / lookahead_threads=2 / sliced_threads=0 / nr=0 / decimate=1 / interlaced=0 / bluray_compat=0 / constrained_intra=0 / bframes=0 / weightp=2 / keyint=96 / keyint_min=48 / scenecut=40 / intra_refresh=0 / rc_lookahead=48 / rc=2pass / mbtree=1 / bitrate=8000 / ratetol=1.0 / qcomp=0.60 / qpmin=0 / qpmax=69 / qpstep=4 / cplxblur=20.0 / qblur=0.5 / vbv_maxrate=12000 / vbv_bufsize=18000 / nal_hrd=none / filler=0 / ip_ratio=1.40 / aq=1:0.60
Language : Japanese
Default : Yes
Forced : No

Audio
ID : 2
Format : AAC
Format/Info : Advanced Audio Codec
Format profile : LC
Codec ID : A_AAC-2
Duration : 3 min 36 s
Bit rate : 128 kb/s
Channel(s) : 2 channels
Channel positions : Front: L R
Sampling rate : 44.1 kHz
Frame rate : 43.066 FPS (1024 SPF)
Compression mode : Lossy
Stream size : 3.30 MiB (2%)
Language : Japanese
Default : Yes
Forced : No

Text #1
ID : 3
Format : ASS
Codec ID : S_TEXT/ASS
Codec ID/Info : Advanced Sub Station Alpha
Duration : 2 min 54 s
Bit rate : 306 b/s
Count of elements : 79
Compression mode : Lossless
Stream size : 6.55 KiB (0%)
Title : English(US)
Language : English
Default : Yes
Forced : No

Text #2
ID : 4
Format : ASS
Codec ID : S_TEXT/ASS
Codec ID/Info : Advanced Sub Station Alpha
Duration : 2 min 54 s
Bit rate : 340 b/s
Count of elements : 79
Compression mode : Lossless
Stream size : 7.27 KiB (0%)
Title : Arabic
Language : Arabic
Default : No
Forced : No

Text #3
ID : 5
Format : ASS
Codec ID : S_TEXT/ASS
Codec ID/Info : Advanced Sub Station Alpha
Duration : 2 min 54 s
Bit rate : 184 b/s
Count of elements : 58
Compression mode : Lossless
Stream size : 3.95 KiB (0%)
Title : Francais(France)
Language : French
Default : No
Forced : No

Text #4
ID : 6
Format : ASS
Codec ID : S_TEXT/ASS
Codec ID/Info : Advanced Sub Station Alpha
Duration : 3 min 32 s
Bit rate : 179 b/s
Count of elements : 73
Compression mode : Lossless
Stream size : 4.65 KiB (0%)
Title : Deutsch
Language : German
Default : No
Forced : No

Text #5
ID : 7
Format : ASS
Codec ID : S_TEXT/ASS
Codec ID/Info : Advanced Sub Station Alpha
Duration : 2 min 54 s
Bit rate : 310 b/s
Count of elements : 81
Compression mode : Lossless
Stream size : 6.62 KiB (0%)
Title : Italiano
Language : Italian
Default : No
Forced : No

Text #6
ID : 8
Format : ASS
Codec ID : S_TEXT/ASS
Codec ID/Info : Advanced Sub Station Alpha
Duration : 2 min 51 s
Bit rate : 149 b/s
Count of elements : 54
Compression mode : Lossless
Stream size : 3.13 KiB (0%)
Title : Espanol(Espana)
Language : Spanish
Default : No
Forced : No

Text #7
ID : 9
Format : ASS
Codec ID : S_TEXT/ASS
Codec ID/Info : Advanced Sub Station Alpha
Duration : 2 min 51 s
Bit rate : 149 b/s
Count of elements : 54
Compression mode : Lossless
Stream size : 3.13 KiB (0%)
Title : Espanol
Language : Spanish
Default : No
Forced : No

Text #8
ID : 10
Format : ASS
Codec ID : S_TEXT/ASS
Codec ID/Info : Advanced Sub Station Alpha
Duration : 2 min 54 s
Bit rate : 301 b/s
Count of elements : 79
Compression mode : Lossless
Stream size : 6.44 KiB (0%)
Title : Portugues(Brasil)
Language : Portuguese
Default : No
Forced : No

Text #9
ID : 11
Format : ASS
Codec ID : S_TEXT/ASS
Codec ID/Info : Advanced Sub Station Alpha
Duration : 2 min 54 s
Bit rate : 349 b/s
Count of elements : 79
Compression mode : Lossless
Stream size : 7.46 KiB (0%)
Title : Russian
Language : Russian
Default : No
Forced : No


Screenshots

Sore dake ga Neck (2020) (1-6)

Sore dake ga Neck (2020) (1-6)

Sore dake ga Neck (2020) (1-6)


My publications | Rss Channel