Tags
Language
Tags

Gochuumon wa Usagi Desuka? Bloom (2020) (1-6)

Posted By: Lebedev30
Gochuumon wa Usagi Desuka? Bloom (2020) (1-6)

Gochuumon wa Usagi Desuka? Bloom (2020) (1-6)
WEBRip | MKV | 1920x1080 | H264@8000 Kbps | 6x ~ 25mn | 6x ~1.4 Gb
日本語 AAC@128 Kbps | 2 channels | Subtitles: العربية, English, Español, Português
Genre: comedy, daily life


Description:
As summer turns to autumn, the colorful Rabbit House regulars return to serve up warm treats and tasty drinks at the Rabbit House café — along with a heaping helping of adorable antics and cute capers.




01. The Magician at the Cafe of Smiles
02. The Case of the Childhood Friend`s Stolen Heart
03. Everything in the World Serves as My Experience Points
04. A Potential Everyday Life
05. She Is a Fierce Whirlwind, She Is a Carefree Breeze
06. A Fluffle of Rabbits Is Also Most Welcome


General
Format : Matroska
Format version : Version 4 / Version 2
File size : 1.41 GiB
Duration : 24 min 51 s
Overall bit rate : 8 135 kb/s
Encoded date : UTC 2020-10-23 21:25:53
Writing application : mkvmerge v48.0.0 ('Fortress Around Your Heart') 64-bit
Writing library : libebml v1.4.0 + libmatroska v1.6.0
Attachments : Arial_0.ttf / BakerSignetBTRoman.ttf / calibri.ttf / comic_0.ttf / domcasn.ttf / georgia_0.ttf / impact_0.ttf / Swis721_BT_Bold.ttf / Tahoma_0.ttf / times_0.ttf / trebuc_0.ttf / VEN301DI.ttf / verdana_0.ttf / AdobeArabic-Bold.otf

Video
ID : 1
Format : AVC
Format/Info : Advanced Video Codec
Format profile : High@L4
Format settings : CABAC / 4 Ref Frames
Format settings, CABAC : Yes
Format settings, RefFrames : 4 frames
Codec ID : V_MPEG4/ISO/AVC
Duration : 24 min 51 s
Bit rate : 8 000 kb/s
Width : 1 920 pixels
Height : 1 080 pixels
Display aspect ratio : 16:9
Frame rate mode : Constant
Frame rate : 23.976 (24000/1001) FPS
Color space : YUV
Chroma subsampling : 4:2:0
Bit depth : 8 bits
Scan type : Progressive
Bits/(Pixel*Frame) : 0.161
Stream size : 1.39 GiB (98%)
Writing library : x264 core 142
Encoding settings : cabac=1 / ref=4 / deblock=1:1:1 / analyse=0x3:0x113 / me=umh / subme=8 / psy=1 / psy_rd=0.40:0.00 / mixed_ref=1 / me_range=16 / chroma_me=1 / trellis=1 / 8x8dct=1 / cqm=0 / deadzone=21,11 / fast_pskip=1 / chroma_qp_offset=-2 / threads=12 / lookahead_threads=2 / sliced_threads=0 / nr=0 / decimate=1 / interlaced=0 / bluray_compat=0 / constrained_intra=0 / bframes=0 / weightp=2 / keyint=96 / keyint_min=48 / scenecut=40 / intra_refresh=0 / rc_lookahead=48 / rc=2pass / mbtree=1 / bitrate=8000 / ratetol=1.0 / qcomp=0.60 / qpmin=0 / qpmax=69 / qpstep=4 / cplxblur=20.0 / qblur=0.5 / vbv_maxrate=12000 / vbv_bufsize=18000 / nal_hrd=none / filler=0 / ip_ratio=1.40 / aq=1:0.60
Language : Japanese
Default : Yes
Forced : No

Audio
ID : 2
Format : AAC
Format/Info : Advanced Audio Codec
Format profile : LC
Codec ID : A_AAC-2
Duration : 24 min 51 s
Bit rate : 128 kb/s
Channel(s) : 2 channels
Channel positions : Front: L R
Sampling rate : 44.1 kHz
Frame rate : 43.066 FPS (1024 SPF)
Compression mode : Lossy
Stream size : 22.8 MiB (2%)
Language : Japanese
Default : Yes
Forced : No

Text #1
ID : 3
Format : ASS
Codec ID : S_TEXT/ASS
Codec ID/Info : Advanced Sub Station Alpha
Duration : 23 min 15 s
Bit rate : 159 b/s
Count of elements : 424
Compression mode : Lossless
Stream size : 27.2 KiB (0%)
Title : English(US)
Language : English
Default : Yes
Forced : No

Text #2
ID : 4
Format : ASS
Codec ID : S_TEXT/ASS
Codec ID/Info : Advanced Sub Station Alpha
Duration : 23 min 15 s
Bit rate : 142 b/s
Count of elements : 425
Compression mode : Lossless
Stream size : 24.3 KiB (0%)
Title : English(US) HIDIVE
Language : English
Default : No
Forced : No

Text #3
ID : 5
Format : ASS
Codec ID : S_TEXT/ASS
Codec ID/Info : Advanced Sub Station Alpha
Duration : 23 min 15 s
Bit rate : 165 b/s
Count of elements : 393
Compression mode : Lossless
Stream size : 28.1 KiB (0%)
Title : Arabic
Language : Arabic
Default : No
Forced : No

Text #4
ID : 6
Format : ASS
Codec ID : S_TEXT/ASS
Codec ID/Info : Advanced Sub Station Alpha
Duration : 23 min 14 s
Bit rate : 125 b/s
Count of elements : 376
Compression mode : Lossless
Stream size : 21.3 KiB (0%)
Title : Espanol
Language : Spanish
Default : No
Forced : No

Text #5
ID : 7
Format : ASS
Codec ID : S_TEXT/ASS
Codec ID/Info : Advanced Sub Station Alpha
Duration : 23 min 15 s
Bit rate : 148 b/s
Count of elements : 407
Compression mode : Lossless
Stream size : 25.2 KiB (0%)
Title : Portugues(Brasil)
Language : Portuguese
Default : No
Forced : No


Screenshots

Gochuumon wa Usagi Desuka? Bloom (2020) (1-6)

Gochuumon wa Usagi Desuka? Bloom (2020) (1-6)

Gochuumon wa Usagi Desuka? Bloom (2020) (1-6)


My publications | Rss Channel