Tags
Language
Tags

Princess Connect! Re:Dive (2020)

Posted By: Lebedev30
Princess Connect! Re:Dive (2020)

Princess Connect! Re:Dive (2020)
BDRip | MKV | 1920x1080 | H264@~10000 Kbps | 13x ~ 24mn | 13x ~1.8 Gb
Japanese FLAC@1402 Kbps | 2 channels | Subtitles: None
Genre: fantasy, juujin, magic


Description:
* Based on Cygames' anime RPG smartphone game.

In the beautiful land of Astraea where a gentle breeze blows, a young man named Yuuki awakens with no memory of his past. There he encounters a guide who has sworn to care for him—Kokkoro, a lovely swordswoman who's always feeling peckish—Pecorine, and a cat-eared sorceress with a prickly attitude—Karyl. Led by fate, these four come together to form the "Gourmet Guild."

And so their adventure begins…






01. The Adventure Begins: Sauteed Mushrooms at Sunset
02. A Moody Cat`s Mischief: Warm, Golden Rice Balls
03. The Epicurean Frontier: Heavenly Fruit Is the Secret Ingredient
04. Welcome to the Gourmet Guild: Beef Stew at Nightfall
05. Porridge Made with Love: Topped with a Twilight Fate
06. Melody of Departure: Aromatic Spices Under the Starry Sky
07. A Light to Pierce the Darkness: Like Two Sisters in a Pod
08. A Little, Lyrical Kids` Meal: Country-Style Fried Eggs
09. A Gourmet Getaway: Fragrant Tentacles on the Beach
10. Flowers in Eternal Darkness: Cursed Pudding
11. Evening Home: A Crispy Quest Hot Dog
12. The Whimsical Patissier`s Specialty: A Memory of Labyrinths and Crepes
13. Lost Princess: Garnished with Smiles


General
Format : Matroska
Format version : Version 4 / Version 2
File size : 1.89 GiB
Duration : 23 min 41 s
Overall bit rate mode : Variable
Overall bit rate : 11.4 Mb/s
Encoded date : UTC 2020-11-19 19:03:46
Writing application : mkvmerge v32.0.0 ('Astral Progressions') 64-bit
Writing library : libebml v1.3.7 + libmatroska v1.5.0

Video
ID : 2
Format : AVC
Format/Info : Advanced Video Codec
Format profile : High@L5.1
Format settings : CABAC / 16 Ref Frames
Format settings, CABAC : Yes
Format settings, RefFrames : 16 frames
Codec ID : V_MPEG4/ISO/AVC
Duration : 23 min 41 s
Bit rate : 10 000 kb/s
Width : 1 920 pixels
Height : 1 080 pixels
Display aspect ratio : 16:9
Frame rate mode : Constant
Frame rate : 23.976 (24000/1001) FPS
Color space : YUV
Chroma subsampling : 4:2:0
Bit depth : 8 bits
Scan type : Progressive
Bits/(Pixel*Frame) : 0.201
Stream size : 1.65 GiB (88%)
Writing library : x264 core 157 r2969 d4099dd
Encoding settings : cabac=1 / ref=16 / deblock=1:0:0 / analyse=0x3:0x133 / me=tesa / subme=11 / psy=1 / psy_rd=1.00:0.00 / mixed_ref=1 / me_range=24 / chroma_me=1 / trellis=2 / 8x8dct=1 / cqm=0 / deadzone=21,11 / fast_pskip=0 / chroma_qp_offset=-2 / threads=12 / lookahead_threads=3 / sliced_threads=0 / nr=0 / decimate=1 / interlaced=0 / bluray_compat=0 / constrained_intra=0 / bframes=16 / b_pyramid=2 / b_adapt=2 / b_bias=0 / direct=3 / weightb=1 / open_gop=0 / weightp=2 / keyint=240 / keyint_min=23 / scenecut=40 / intra_refresh=0 / rc_lookahead=60 / rc=2pass / mbtree=1 / bitrate=10000 / ratetol=1.0 / qcomp=0.60 / qpmin=0 / qpmax=69 / qpstep=4 / cplxblur=20.0 / qblur=0.5 / ip_ratio=1.40 / aq=1:1.00
Default : Yes
Forced : No

Audio
ID : 1
Format : FLAC
Format/Info : Free Lossless Audio Codec
Codec ID : A_FLAC
Duration : 23 min 41 s
Bit rate mode : Variable
Bit rate : 1 402 kb/s
Channel(s) : 2 channels
Channel positions : Front: L R
Sampling rate : 48.0 kHz
Frame rate : 11.719 FPS (4096 SPF)
Bit depth : 24 bits
Stream size : 238 MiB (12%)
Writing library : libFLAC 1.3.2 (UTC 2017-01-01)
Default : Yes
Forced : No

Menu
00:00:00.000 : en:Avant
00:01:23.000 : en:A Part
00:11:51.961 : en:B Part
00:23:34.997 : en:Yokoku


Screenshots

Princess Connect! Re:Dive (2020)

Princess Connect! Re:Dive (2020)

Princess Connect! Re:Dive (2020)


My publications | Rss Channel