Tags
Language
Tags

Chobits (2002)

Posted By: Lebedev30
Chobits (2002)

Chobits (2002)
BDRip | MKV | 1920x1080 | H264@~5000 Kbps | 25x ~ 24mn | 25x ~0.9 Gb
Japanese TrueHD@739 Kbps | 2 channels | Subtitles: None
Genre: android, comedy, romance, science fiction, seinen


Description:
In the near future, personal computers take the form of attractive female androids, called Persocons.

Motosuwa Hideki is a poor student who failed his entrance exams to get into college. So, Hideki is forced to move to the city, get a job, and attend cram school in hopes of passing the next college entrance exam. He would of course also like to own a Persocon, but is way too poor to afford one.

One day, while returning home, he finds a Persocon in a trash heap. However, his new find does not seem to be like the others he has heard about. She does not seem to have an operating system at all, and only says "Chii". As Hideki learns more about his Persocon (aptly named Chii), he finds out that she is not of any known type, and is most likely some sort of home-made model. He also learns of an urban legend — the Chobits — Persocons with the ability to think for themselves, instead of just running complex programs…






01. Chi Awakens
02. Chi Goes Out
03. Chi Learns
04. Chi Goes On Errands
05 .Chi Finds
06. Chi Weakens
07. Chi Works
08. Chi Bewildered
09. Shinbo and Sumomo Chat
10. Chi Buys
11. Chi Meets
12. Chi Confirms
13. Chi Plays
14. Chi Goes to the Ocean
15. Chi Entertains
16. Chi Doesn`t Do Anything
17. Chi Provides
18. Minoru and Yuzuki Chat
19. Chi Helps
20. Chi Disappears
21. Chi Waits
22. Chi Wants
23. Chi Answers
24. Chi Wears and Takes Off
25. Chi Decides


General
Format : Matroska
Format version : Version 4 / Version 2
File size : 1 021 MiB
Duration : 24 min 36 s
Overall bit rate mode : Variable
Overall bit rate : 5 801 kb/s
Encoded date : UTC 2020-12-15 14:31:33
Writing application : mkvmerge v32.0.0 ('Astral Progressions') 64-bit
Writing library : libebml v1.3.7 + libmatroska v1.5.0
Attachments : GaramondPremrPro-Smbd.otf / ITCKRIST.TTF / MTCORSVA.TTF

Video
ID : 1
Format : AVC
Format/Info : Advanced Video Codec
Format profile : High@L5.1
Format settings : CABAC / 16 Ref Frames
Format settings, CABAC : Yes
Format settings, RefFrames : 16 frames
Codec ID : V_MPEG4/ISO/AVC
Duration : 24 min 36 s
Bit rate : 5 000 kb/s
Width : 1 920 pixels
Height : 1 080 pixels
Display aspect ratio : 16:9
Frame rate mode : Constant
Frame rate : 23.976 (24000/1001) FPS
Color space : YUV
Chroma subsampling : 4:2:0
Bit depth : 8 bits
Scan type : Progressive
Bits/(Pixel*Frame) : 0.101
Stream size : 880 MiB (86%)
Writing library : x264 core 157 r2969 d4099dd
Encoding settings : cabac=1 / ref=16 / deblock=1:0:0 / analyse=0x3:0x133 / me=tesa / subme=11 / psy=1 / psy_rd=1.00:0.00 / mixed_ref=1 / me_range=24 / chroma_me=1 / trellis=2 / 8x8dct=1 / cqm=0 / deadzone=21,11 / fast_pskip=0 / chroma_qp_offset=-2 / threads=12 / lookahead_threads=3 / sliced_threads=0 / nr=0 / decimate=1 / interlaced=0 / bluray_compat=0 / constrained_intra=0 / bframes=16 / b_pyramid=2 / b_adapt=2 / b_bias=0 / direct=3 / weightb=1 / open_gop=0 / weightp=2 / keyint=240 / keyint_min=23 / scenecut=40 / intra_refresh=0 / rc_lookahead=60 / rc=2pass / mbtree=1 / bitrate=5000 / ratetol=1.0 / qcomp=0.60 / qpmin=0 / qpmax=69 / qpstep=4 / cplxblur=20.0 / qblur=0.5 / ip_ratio=1.40 / aq=1:1.00
Default : Yes
Forced : No

Audio
ID : 2
Format : TrueHD
Codec ID : A_TRUEHD
Duration : 24 min 36 s
Bit rate mode : Variable
Bit rate : 739 kb/s
Maximum bit rate : 1 116 kb/s
Channel(s) : 2 channels
Channel positions : Front: C
Sampling rate : 48.0 kHz
Frame rate : 1 200.000 FPS (40 SPF)
Compression mode : Lossless
Stream size : 130 MiB (13%)
Default : Yes
Forced : No

Menu
00:00:00.000 : 01 Prologue
00:01:33.960 : 02 OP
00:03:03.950 : 03 Part A
00:10:14.313 : 04 Part B
00:22:25.310 : :05 ED
00:23:55.567 : :06 Preview


Screenshots

Chobits (2002)

Chobits (2002)

Chobits (2002)


My publications | Rss Channel