Tags
Language
Tags

Skip Beat! (2008-2009)

Posted By: Lebedev30
Skip Beat! (2008-2009)

Skip Beat! (2008-2009)
BDRip | MKV | 1920x1080 | H264@~10000 Kbps | 25x ~ 24mn | 25x ~1.9 Gb
Japanese PCM@1536 Kbps | 2 channels | Subtitles: None
Genre: comedy, performance, romance, shoujo, super deformed


Description:
Kyoko has devoted her life to Shotaro. When Shotaro came to Tokyo to debut as a singer, she followed him and worked to provide for him. But one day, Kyoko overhears Shota telling his manager that Kyoko means nothing to him. She's just convenient, a housekeeper. This makes Kyoko furious, and she vows revenge on Shotaro. But Shotaro just laughs at her, saying she won't be able to touch him because he's now a popular singer and she's a nobody. So Kyoko decides to get into showbiz and become even more popular than Shotaro to humiliate him. Unfortunately, Shotaro has destroyed Kyoko's ability to love, and she discovers that it is a prerequisite for her to debut from her chosen company, LME. The president of LME puts her into a new section made for those who caught his eye but have something missing. It's name… Love Me Section. On her way to become a pro actress she's meeting new people like Kanae Kotonami, Maria Takarada, Yukihito Yashiro and the important person in this story - Ren Tsuruga.






01. And the Box was Opened
02. Banquet of Shivering
03. An Emotion She Lacks
04. The Labyrinth of Reunion
05. Danger Zone
06. An Invitation to the Ball
07. Princess Revolution
08. Through Thick and Thin
09. An Angel`s Power
10. Blue in Hand
11. Barefaced Storm
12. Opened Wound
13. Battle Girl
14. The Secret Stamp Album
15. Together with the Minefield
16. Hate X Hate
17. Date with Fate
18. Sin is Like an Angel
19. The Last Ritual
20. Month of Invitations
21. A Person Possessing Abilities
22. Day That Breaks the World
23. Pulled Trigger
24. That Contact Is Allowed
25. And So the Door Was Opened


General
Format : Matroska
Format version : Version 4 / Version 2
File size : 1.93 GiB
Duration : 23 min 54 s
Overall bit rate : 11.5 Mb/s
Movie name : Skip Beat! - S01E01
Encoded date : UTC 2021-01-05 07:57:33
Writing application : mkvmerge v32.0.0 ('Astral Progressions') 64-bit
Writing library : libebml v1.3.7 + libmatroska v1.5.0
Attachments : Express.ttf / MentorSansStd.otf

Video
ID : 1
Format : AVC
Format/Info : Advanced Video Codec
Format profile : High@L5.1
Format settings : CABAC / 16 Ref Frames
Format settings, CABAC : Yes
Format settings, RefFrames : 16 frames
Codec ID : V_MPEG4/ISO/AVC
Duration : 23 min 54 s
Bit rate : 10 000 kb/s
Width : 1 920 pixels
Height : 1 080 pixels
Display aspect ratio : 16:9
Frame rate mode : Constant
Frame rate : 23.976 (24000/1001) FPS
Color space : YUV
Chroma subsampling : 4:2:0
Bit depth : 8 bits
Scan type : Progressive
Bits/(Pixel*Frame) : 0.201
Stream size : 1.67 GiB (87%)
Writing library : x264 core 157 r2969 d4099dd
Encoding settings : cabac=1 / ref=16 / deblock=1:0:0 / analyse=0x3:0x133 / me=tesa / subme=11 / psy=1 / psy_rd=1.00:0.00 / mixed_ref=1 / me_range=24 / chroma_me=1 / trellis=2 / 8x8dct=1 / cqm=0 / deadzone=21,11 / fast_pskip=0 / chroma_qp_offset=-2 / threads=12 / lookahead_threads=3 / sliced_threads=0 / nr=0 / decimate=1 / interlaced=0 / bluray_compat=0 / constrained_intra=0 / bframes=16 / b_pyramid=2 / b_adapt=2 / b_bias=0 / direct=3 / weightb=1 / open_gop=0 / weightp=2 / keyint=240 / keyint_min=23 / scenecut=40 / intra_refresh=0 / rc_lookahead=60 / rc=2pass / mbtree=1 / bitrate=10000 / ratetol=1.0 / qcomp=0.60 / qpmin=0 / qpmax=69 / qpstep=4 / cplxblur=20.0 / qblur=0.5 / ip_ratio=1.40 / aq=1:1.00
Default : Yes
Forced : No

Audio
ID : 2
Format : PCM
Format settings : Little / Signed
Codec ID : A_PCM/INT/LIT
Duration : 23 min 54 s
Bit rate mode : Constant
Bit rate : 1 536 kb/s
Channel(s) : 2 channels
Sampling rate : 48.0 kHz
Frame rate : 32.001 FPS (1500 SPF)
Bit depth : 16 bits
Stream size : 263 MiB (13%)
Default : Yes
Forced : No

Menu
00:00:00.000 : :Intro
00:00:31.031 : :OP
00:02:00.954 : :Part A
00:12:23.701 : :Part B
00:22:19.588 : :ED


Screenshots

Skip Beat! (2008-2009)

Skip Beat! (2008-2009)

Skip Beat! (2008-2009)


My publications | Rss Channel