Tags
Language
Tags

Kusoge-tte Iuna! (2020) (5-12)

Posted By: Lebedev30
Kusoge-tte Iuna! (2020) (5-12)

Kusoge-tte Iuna! (2020) (5-12)
WEBRip | MKV | 1920x1080 | H264@8000 Kbps | 8x ~ 4mn | 8x ~200 Mb
日本語 AAC@124 Kbps | 2 channels | Subtitles: English, Español, Português, Italiano, Deutsch, Français





05. This Maid Is Junk!
06. This Maid Is Junk!
07. This Villain Is Junk!
08. This Villain Is Junk!
09. This Holy Sister Is Junk!
10. This Holy Sister Is Junk!
11. These Heroines Are Junk!
12. These Heroines Are Junk!


General
Format : Matroska
Format version : Version 4 / Version 2
File size : 199 MiB
Duration : 3 min 30 s
Overall bit rate : 7 946 kb/s
Encoded date : UTC 2020-11-24 08:10:40
Writing application : mkvmerge v48.0.0 ('Fortress Around Your Heart') 64-bit
Writing library : libebml v1.4.0 + libmatroska v1.6.0
Attachments : Arial_0.ttf / calibri.ttf / comic_0.ttf / georgia_0.ttf / impact_0.ttf / Tahoma_0.ttf / times_0.ttf / trebuc_0.ttf / verdana_0.ttf / AdobeArabic-Bold.otf

Video
ID : 1
Format : AVC
Format/Info : Advanced Video Codec
Format profile : High@L4
Format settings : CABAC / 4 Ref Frames
Format settings, CABAC : Yes
Format settings, RefFrames : 4 frames
Codec ID : V_MPEG4/ISO/AVC
Duration : 3 min 30 s
Bit rate : 8 000 kb/s
Width : 1 920 pixels
Height : 1 080 pixels
Display aspect ratio : 16:9
Frame rate mode : Constant
Frame rate : 30.000 FPS
Color space : YUV
Chroma subsampling : 4:2:0
Bit depth : 8 bits
Scan type : Progressive
Bits/(Pixel*Frame) : 0.129
Stream size : 192 MiB (96%)
Writing library : x264 core 142
Encoding settings : cabac=1 / ref=4 / deblock=1:1:1 / analyse=0x3:0x113 / me=umh / subme=8 / psy=1 / psy_rd=0.40:0.00 / mixed_ref=1 / me_range=16 / chroma_me=1 / trellis=1 / 8x8dct=1 / cqm=0 / deadzone=21,11 / fast_pskip=1 / chroma_qp_offset=-2 / threads=12 / lookahead_threads=2 / sliced_threads=0 / nr=0 / decimate=1 / interlaced=0 / bluray_compat=0 / constrained_intra=0 / bframes=0 / weightp=2 / keyint=120 / keyint_min=60 / scenecut=40 / intra_refresh=0 / rc_lookahead=60 / rc=2pass / mbtree=1 / bitrate=8000 / ratetol=1.0 / qcomp=0.60 / qpmin=0 / qpmax=69 / qpstep=4 / cplxblur=20.0 / qblur=0.5 / vbv_maxrate=12000 / vbv_bufsize=18000 / nal_hrd=none / filler=0 / ip_ratio=1.40 / aq=1:0.60
Language : Japanese
Default : Yes
Forced : No

Audio
ID : 2
Format : AAC
Format/Info : Advanced Audio Codec
Format profile : LC
Codec ID : A_AAC-2
Duration : 3 min 30 s
Bit rate : 128 kb/s
Channel(s) : 2 channels
Channel positions : Front: L R
Sampling rate : 44.1 kHz
Frame rate : 43.066 FPS (1024 SPF)
Compression mode : Lossy
Stream size : 3.21 MiB (2%)
Language : Japanese
Default : Yes
Forced : No

Text #1
ID : 3
Format : ASS
Codec ID : S_TEXT/ASS
Codec ID/Info : Advanced Sub Station Alpha
Duration : 2 min 58 s
Bit rate : 359 b/s
Count of elements : 92
Compression mode : Lossless
Stream size : 7.84 KiB (0%)
Title : English(US)
Language : English
Default : Yes
Forced : No

Text #2
ID : 4
Format : ASS
Codec ID : S_TEXT/ASS
Codec ID/Info : Advanced Sub Station Alpha
Duration : 3 min 4 s
Bit rate : 204 b/s
Count of elements : 72
Compression mode : Lossless
Stream size : 4.61 KiB (0%)
Title : Francais(France)
Language : French
Default : No
Forced : No

Text #3
ID : 5
Format : ASS
Codec ID : S_TEXT/ASS
Codec ID/Info : Advanced Sub Station Alpha
Duration : 3 min 4 s
Bit rate : 367 b/s
Count of elements : 95
Compression mode : Lossless
Stream size : 8.29 KiB (0%)
Title : Deutsch
Language : German
Default : No
Forced : No

Text #4
ID : 6
Format : ASS
Codec ID : S_TEXT/ASS
Codec ID/Info : Advanced Sub Station Alpha
Duration : 3 min 4 s
Bit rate : 407 b/s
Count of elements : 103
Compression mode : Lossless
Stream size : 9.20 KiB (0%)
Title : Italiano
Language : Italian
Default : No
Forced : No

Text #5
ID : 7
Format : ASS
Codec ID : S_TEXT/ASS
Codec ID/Info : Advanced Sub Station Alpha
Duration : 2 min 58 s
Bit rate : 215 b/s
Count of elements : 70
Compression mode : Lossless
Stream size : 4.70 KiB (0%)
Title : Portugues(Brasil)
Language : Portuguese
Default : No
Forced : No


Screenshots

Kusoge-tte Iuna! (2020) (5-12)

Kusoge-tte Iuna! (2020) (5-12)

Kusoge-tte Iuna! (2020) (5-12)


My publications | Rss Channel