Tags
Language
Tags

Re:Zero kara Hajimeru Isekai Seikatsu (2021) (1-5)

Posted By: Lebedev30
Re:Zero kara Hajimeru Isekai Seikatsu (2021) (1-5)

Re:Zero kara Hajimeru Isekai Seikatsu (2021) (1-5)
WEBRip | MKV | 1920x1080 | H264@8000 Kbps | 5x ~ 28mn | 5x ~1.5 Gb
日本語 AAC@128 Kbps | 2 channels | Subtitles: العربية, English, Español, Português, Русский, Italiano, Deutsch, Français
Genre: fantasy, magic





01. Straight Bet
02. Otto Suwen / A Reason to Believe
03. Nobody Can Lift a Quain Stone Alone
04. A Journey Through Memories
05. The Day Betelgeuse Laughed


General
Format : Matroska
Format version : Version 4 / Version 2
File size : 1.59 GiB
Duration : 28 min 9 s
Overall bit rate : 8 101 kb/s
Encoded date : UTC 2021-01-12 18:09:56
Writing application : mkvmerge v48.0.0 ('Fortress Around Your Heart') 64-bit
Writing library : libebml v1.4.0 + libmatroska v1.6.0
Attachments : Arial_0.ttf / calibri.ttf / comic_0.ttf / georgia_0.ttf / impact_0.ttf / Tahoma_0.ttf / times_0.ttf / trebuc_0.ttf / verdana_0.ttf / AdobeArabic-Bold.otf

Video
ID : 1
Format : AVC
Format/Info : Advanced Video Codec
Format profile : High@L4
Format settings : CABAC / 4 Ref Frames
Format settings, CABAC : Yes
Format settings, RefFrames : 4 frames
Codec ID : V_MPEG4/ISO/AVC
Duration : 28 min 0 s
Bit rate : 8 000 kb/s
Width : 1 920 pixels
Height : 1 080 pixels
Display aspect ratio : 16:9
Frame rate mode : Constant
Frame rate : 23.976 (24000/1001) FPS
Color space : YUV
Chroma subsampling : 4:2:0
Bit depth : 8 bits
Scan type : Progressive
Bits/(Pixel*Frame) : 0.161
Stream size : 1.56 GiB (98%)
Writing library : x264 core 142
Encoding settings : cabac=1 / ref=4 / deblock=1:1:1 / analyse=0x3:0x113 / me=umh / subme=8 / psy=1 / psy_rd=0.40:0.00 / mixed_ref=1 / me_range=16 / chroma_me=1 / trellis=1 / 8x8dct=1 / cqm=0 / deadzone=21,11 / fast_pskip=1 / chroma_qp_offset=-2 / threads=12 / lookahead_threads=2 / sliced_threads=0 / nr=0 / decimate=1 / interlaced=0 / bluray_compat=0 / constrained_intra=0 / bframes=0 / weightp=2 / keyint=96 / keyint_min=48 / scenecut=40 / intra_refresh=0 / rc_lookahead=48 / rc=2pass / mbtree=1 / bitrate=8000 / ratetol=1.0 / qcomp=0.60 / qpmin=0 / qpmax=69 / qpstep=4 / cplxblur=20.0 / qblur=0.5 / vbv_maxrate=12000 / vbv_bufsize=18000 / nal_hrd=none / filler=0 / ip_ratio=1.40 / aq=1:0.60
Language : Japanese
Default : Yes
Forced : No

Audio
ID : 2
Format : AAC
Format/Info : Advanced Audio Codec
Format profile : LC
Codec ID : A_AAC-2
Duration : 28 min 0 s
Bit rate : 128 kb/s
Channel(s) : 2 channels
Channel positions : Front: L R
Sampling rate : 44.1 kHz
Frame rate : 43.066 FPS (1024 SPF)
Compression mode : Lossy
Stream size : 25.6 MiB (2%)
Language : Japanese
Default : Yes
Forced : No

Text #1
ID : 3
Format : ASS
Codec ID : S_TEXT/ASS
Codec ID/Info : Advanced Sub Station Alpha
Duration : 28 min 0 s
Bit rate : 158 b/s
Count of elements : 457
Compression mode : Lossless
Stream size : 32.6 KiB (0%)
Title : English(US)
Language : English
Default : Yes
Forced : No

Text #2
ID : 4
Format : ASS
Codec ID : S_TEXT/ASS
Codec ID/Info : Advanced Sub Station Alpha
Duration : 27 min 50 s
Bit rate : 190 b/s
Count of elements : 456
Compression mode : Lossless
Stream size : 38.9 KiB (0%)
Title : Arabic
Language : Arabic
Default : No
Forced : No

Text #3
ID : 5
Format : ASS
Codec ID : S_TEXT/ASS
Codec ID/Info : Advanced Sub Station Alpha
Duration : 27 min 50 s
Bit rate : 155 b/s
Count of elements : 422
Compression mode : Lossless
Stream size : 31.6 KiB (0%)
Title : Francais(France)
Language : French
Default : No
Forced : No

Text #4
ID : 6
Format : ASS
Codec ID : S_TEXT/ASS
Codec ID/Info : Advanced Sub Station Alpha
Duration : 27 min 50 s
Bit rate : 144 b/s
Count of elements : 423
Compression mode : Lossless
Stream size : 29.4 KiB (0%)
Title : Deutsch
Language : German
Default : No
Forced : No

Text #5
ID : 7
Format : ASS
Codec ID : S_TEXT/ASS
Codec ID/Info : Advanced Sub Station Alpha
Duration : 27 min 50 s
Bit rate : 168 b/s
Count of elements : 457
Compression mode : Lossless
Stream size : 34.3 KiB (0%)
Title : Italiano
Language : Italian
Default : No
Forced : No

Text #6
ID : 8
Format : ASS
Codec ID : S_TEXT/ASS
Codec ID/Info : Advanced Sub Station Alpha
Duration : 27 min 50 s
Bit rate : 128 b/s
Count of elements : 422
Compression mode : Lossless
Stream size : 26.3 KiB (0%)
Title : Espanol(Espana)
Language : Spanish
Default : No
Forced : No

Text #7
ID : 9
Format : ASS
Codec ID : S_TEXT/ASS
Codec ID/Info : Advanced Sub Station Alpha
Duration : 27 min 50 s
Bit rate : 128 b/s
Count of elements : 422
Compression mode : Lossless
Stream size : 26.1 KiB (0%)
Title : Espanol
Language : Spanish
Default : No
Forced : No

Text #8
ID : 10
Format : ASS
Codec ID : S_TEXT/ASS
Codec ID/Info : Advanced Sub Station Alpha
Duration : 27 min 50 s
Bit rate : 157 b/s
Count of elements : 455
Compression mode : Lossless
Stream size : 32.2 KiB (0%)
Title : Portugues(Brasil)
Language : Portuguese
Default : No
Forced : No

Text #9
ID : 11
Format : ASS
Codec ID : S_TEXT/ASS
Codec ID/Info : Advanced Sub Station Alpha
Duration : 27 min 53 s
Bit rate : 219 b/s
Count of elements : 432
Compression mode : Lossless
Stream size : 44.8 KiB (0%)
Title : Russian
Language : Russian
Default : No
Forced : No


Screenshots

Re:Zero kara Hajimeru Isekai Seikatsu (2021) (1-5)

Re:Zero kara Hajimeru Isekai Seikatsu (2021) (1-5)

Re:Zero kara Hajimeru Isekai Seikatsu (2021) (1-5)


My publications | Rss Channel