Tags
Language
Tags

Vivy: Fluorite Eye`s Song (2021) (1-4)

Posted By: Lebedev30
Vivy: Fluorite Eye`s Song (2021) (1-4)

Vivy: Fluorite Eye`s Song (2021) (1-4)
WEBRip | MKV | 1920x1080 | H264@7281 Kbps | 4x ~ 26mn | 4x ~1.3 Gb
日本語 AAC@253 Kbps | 2 channels | Subtitles: English, Español, Português
Genre: Animation, Action, Sci-Fi


Description:
NiaLand is an AI theme park that blends dreams with hope and science. Vivy was created as the world's first autonomous humanoid AI to work as a cast member in the theme park. She gets on stage every day to sing, but she is not very popular.
"I want my singing to bring happiness to everyone."
Vivy continues singing in hopes of one day achieving her goal of one day bringing her heartfelt performances to the theme park's main stage. One day, an AI that calls himself Matsumoto appears to her. Matsumoto claims that he is an AI from one hundred years in the future, and that his mission is to rewrite history with Vivy in order to stop the war between AI and humans that will happen a century later.
How will the meeting of these two AIs with such different missions change the course of the future? This is a story of I(Vivi) destroying I(AI)… The one hundred-year journey of an AI songstress named Vivy starts now.






01. My Code: To Make Everyone Happy with My Singing
02. Quarter Note: The Beginning of the One Hundred-Year Journey
03. A Tender Moon Tempo: A Pleasant Chat with the Stars
04. Ensemble for Polaris: Our Promise


General
Format : Matroska
Format version : Version 4 / Version 2
File size : 1.39 GiB
Duration : 26 min 23 s
Overall bit rate : 7 544 kb/s
Encoded date : UTC 2021-04-06 12:26:29
Writing application : mkvmerge v55.0.0 ('Waiting For Space') 64-bit
Writing library : libebml v1.4.2 + libmatroska v1.6.4 / Lavf58.51.101
Attachments : OpenSans-ExtraBold.ttf / OpenSans-Italic.ttf / OpenSans-Light.ttf / OpenSans-Regular.ttf / OpenSans-Semibold.ttf / MIAMA.OTF

Video
ID : 1
Format : AVC
Format/Info : Advanced Video Codec
Format profile : High@L4
Format settings : CABAC / 4 Ref Frames
Format settings, CABAC : Yes
Format settings, RefFrames : 4 frames
Codec ID : V_MPEG4/ISO/AVC
Duration : 26 min 23 s
Bit rate : 7 281 kb/s
Nominal bit rate : 8 000 kb/s
Width : 1 920 pixels
Height : 1 080 pixels
Display aspect ratio : 16:9
Frame rate mode : Constant
Frame rate : 23.976 (24000/1001) FPS
Color space : YUV
Chroma subsampling : 4:2:0
Bit depth : 8 bits
Scan type : Progressive
Bits/(Pixel*Frame) : 0.146
Stream size : 1.34 GiB (97%)
Writing library : x264 core 157 r2948 dada181
Encoding settings : cabac=1 / ref=1 / deblock=1:0:0 / analyse=0x3:0x113 / me=hex / subme=7 / psy=1 / psy_rd=1.00:0.00 / mixed_ref=0 / me_range=16 / chroma_me=1 / trellis=1 / 8x8dct=1 / cqm=0 / deadzone=21,11 / fast_pskip=1 / chroma_qp_offset=-2 / threads=24 / lookahead_threads=4 / sliced_threads=0 / nr=0 / decimate=1 / interlaced=0 / bluray_compat=0 / constrained_intra=0 / bframes=2 / b_pyramid=2 / b_adapt=1 / b_bias=0 / direct=1 / weightb=1 / open_gop=0 / weightp=2 / keyint=48 / keyint_min=4 / scenecut=40 / intra_refresh=0 / rc_lookahead=40 / rc=cbr / mbtree=1 / bitrate=8000 / ratetol=1.0 / qcomp=0.60 / qpmin=0 / qpmax=69 / qpstep=4 / vbv_maxrate=8000 / vbv_bufsize=24000 / nal_hrd=none / filler=0 / ip_ratio=1.40 / aq=1:1.00
Language : Japanese
Default : Yes
Forced : No

Audio
ID : 2
Format : AAC
Format/Info : Advanced Audio Codec
Format profile : LC
Codec ID : A_AAC-2
Duration : 26 min 23 s
Bit rate : 253 kb/s
Channel(s) : 2 channels
Channel positions : Front: L R
Sampling rate : 48.0 kHz
Frame rate : 46.875 FPS (1024 SPF)
Compression mode : Lossy
Delay relative to video : -43 ms
Stream size : 47.8 MiB (3%)
Language : Japanese
Default : Yes
Forced : No

Text #1
ID : 3
Format : ASS
Codec ID : S_TEXT/ASS
Codec ID/Info : Advanced Sub Station Alpha
Duration : 26 min 2 s
Bit rate : 130 b/s
Count of elements : 414
Compression mode : Lossless
Stream size : 24.9 KiB (0%)
Title : English(US)
Language : English
Default : Yes
Forced : No

Text #2
ID : 4
Format : ASS
Codec ID : S_TEXT/ASS
Codec ID/Info : Advanced Sub Station Alpha
Duration : 25 min 54 s
Bit rate : 124 b/s
Count of elements : 385
Compression mode : Lossless
Stream size : 23.7 KiB (0%)
Title : Espanol
Language : Spanish
Default : No
Forced : No

Text #3
ID : 5
Format : ASS
Codec ID : S_TEXT/ASS
Codec ID/Info : Advanced Sub Station Alpha
Duration : 25 min 54 s
Bit rate : 122 b/s
Count of elements : 406
Compression mode : Lossless
Stream size : 23.3 KiB (0%)
Title : Portugues
Language : Portuguese
Default : No
Forced : No


Screenshots

Vivy: Fluorite Eye`s Song (2021) (1-4)

Vivy: Fluorite Eye`s Song (2021) (1-4)

Vivy: Fluorite Eye`s Song (2021) (1-4)


My publications | Rss Channel