Tags
Language
Tags

Binbougami ga! (2012)

Posted By: Lebedev30
Binbougami ga! (2012)

Binbougami ga! (2012)
BDRip | MKV | 1920x1080 | H264@~10000 Kbps | 13x ~ 24mn | 13x ~2 Gb
Japanese PCM@2304 Kbps | 2 channels | Subtitles: None
Genre: adventure, bishounen, bondage, comedy, fantasy, manga, parody, school life, shounen, super deformed, violence


Description:
* Based on the manga by Sukeno Yoshiaki, serialised in Jump Square since July 2008.

Sakura Ichiko leads a blissful life due to her bountiful store of happiness energy — gained by sapping that energy from other people. To restore the balance, the Binbougami (Poverty God) Binbada Momiji attempts to eliminate her.






01. Are You Sure You Haven`t Confused Being a God of Flat-Brokeness with Being a God of Flat-Chestedness?
02. This, Indeed, Has the "The Battle Between God and Girl Now Begins" Feel To It
03. Taking Orders from You Kinda Ticks Me Off!!! What Do You Mean, Kinda?!!
04. He Shrank, Didn`t He?!
05. Which One of Us Is Flat-Chested, Again? Hm? Hm?! Hm!!?
06. Open Your Eye-es!!!!
07. Is This That So-Called Boy-Raised-As-a-Girl Pattern?
08. Call Me By My Name
09. "Eh?! You Said, `After All This`?!" & "There`s No Way That Happens After Just Two Minutes!!!!"
10. It`s Like Secretly Mixing Pumpkin into a Stew in Order to Feed It to a Child Who Hates Pumpkin
11. …Who Are You?!
12. Sometime, Call Me By My Name
13. You Already Have the Answer to That


General
Format : Matroska
Format version : Version 4 / Version 2
File size : 2.05 GiB
Duration : 23 min 51 s
Overall bit rate : 12.3 Mb/s
Encoded date : UTC 2021-02-22 23:14:57
Writing application : mkvmerge v32.0.0 ('Astral Progressions') 64-bit
Writing library : libebml v1.3.7 + libmatroska v1.5.0

Video
ID : 1
Format : AVC
Format/Info : Advanced Video Codec
Format profile : High@L5.1
Format settings : CABAC / 16 Ref Frames
Format settings, CABAC : Yes
Format settings, RefFrames : 16 frames
Codec ID : V_MPEG4/ISO/AVC
Duration : 23 min 51 s
Bit rate : 10 000 kb/s
Width : 1 920 pixels
Height : 1 080 pixels
Display aspect ratio : 16:9
Frame rate mode : Constant
Frame rate : 23.976 (24000/1001) FPS
Color space : YUV
Chroma subsampling : 4:2:0
Bit depth : 8 bits
Scan type : Progressive
Bits/(Pixel*Frame) : 0.201
Stream size : 1.67 GiB (81%)
Writing library : x264 core 157 r2969 d4099dd
Encoding settings : cabac=1 / ref=16 / deblock=1:0:0 / analyse=0x3:0x133 / me=tesa / subme=11 / psy=1 / psy_rd=1.00:0.00 / mixed_ref=1 / me_range=24 / chroma_me=1 / trellis=2 / 8x8dct=1 / cqm=0 / deadzone=21,11 / fast_pskip=0 / chroma_qp_offset=-2 / threads=12 / lookahead_threads=3 / sliced_threads=0 / nr=0 / decimate=1 / interlaced=0 / bluray_compat=0 / constrained_intra=0 / bframes=16 / b_pyramid=2 / b_adapt=2 / b_bias=0 / direct=3 / weightb=1 / open_gop=0 / weightp=2 / keyint=240 / keyint_min=23 / scenecut=40 / intra_refresh=0 / rc_lookahead=60 / rc=2pass / mbtree=1 / bitrate=10000 / ratetol=1.0 / qcomp=0.60 / qpmin=0 / qpmax=69 / qpstep=4 / cplxblur=20.0 / qblur=0.5 / ip_ratio=1.40 / aq=1:1.00
Default : Yes
Forced : No

Audio
ID : 2
Format : PCM
Format settings : Little / Signed
Codec ID : A_PCM/INT/LIT
Duration : 23 min 51 s
Bit rate mode : Constant
Bit rate : 2 304 kb/s
Channel(s) : 2 channels
Sampling rate : 48.0 kHz
Frame rate : 32.000 FPS (1500 SPF)
Bit depth : 24 bits
Stream size : 393 MiB (19%)
Default : Yes
Forced : No

Menu
00:00:00.000 : :Chapter 01
00:01:16.993 : :Chapter 02
00:02:47.041 : :Chapter 03
00:10:39.972 : :Chapter 04
00:21:36.962 : :Chapter 05
00:23:06.968 : :Chapter 06
00:23:19.981 : :Chapter 07
00:23:34.913 : :Chapter 08
00:23:44.923 : :Chapter 09
00:23:51.930 : :Chapter 10


Screenshots

Binbougami ga! (2012)

Binbougami ga! (2012)

Binbougami ga! (2012)


My publications | Rss Channel