Tags
Language
Tags

Hidan no Aria AA (2015)

Posted By: Lebedev30
Hidan no Aria AA (2015)

Hidan no Aria AA (2015)
BDRip | MKV | 1920x1080 | H264@~10000 Kbps | 12x ~ 24mn | 12x ~1.7 Gb
Japanese FLAC@752 Kbps | 2 channels | Subtitles: None
Genre: action, law and order, manga, novel, romance, school life, seinen


Description:
There are special students called Butei who are authorized to carry weapons, investigate crimes and solve various incidents. One of the best of these students is an S-rank second year at Tokyo Butei High School named Kanzaki H Aria. On the opposite end of the scale is the E-ranked first year named Mamiya Akari.

Akari absolutely idolizes Aria and wants to become an elite Butei just like her but sadly she just is not very good and constantly fails her rank exams. One day she gets the bright idea to submit a request to become Aria's Amica (assistant), despite her friends telling her that she should not even bother due to the disparity in their skills. Surprisingly though, Aria decides to give Akari a test, which she not only accepts, but passes!

It will not be easy for Akari though, as before she can officially become Aria's Amica she will have to work hard until she proves her value. As that may be, Aria senses a dark mystery regarding Akari's past…






01. Another A
02. Dangerous Relationship
03. Applying to Be an Amica
04. Quartet, Part 1
05. Quartet, Part 2
06. Little Devils` Request
07. Struggle over Akari
08. Pool Trap
09. Home Visit
10. First Mission
11. Showdown
12. A Pair of As


General
Format : Matroska
Format version : Version 4 / Version 2
File size : 1.78 GiB
Duration : 23 min 43 s
Overall bit rate mode : Variable
Overall bit rate : 10.8 Mb/s
Encoded date : UTC 2021-04-14 11:20:37
Writing application : mkvmerge v32.0.0 ('Astral Progressions') 64-bit
Writing library : libebml v1.3.7 + libmatroska v1.5.0

Video
ID : 2
Format : AVC
Format/Info : Advanced Video Codec
Format profile : High@L5.1
Format settings : CABAC / 16 Ref Frames
Format settings, CABAC : Yes
Format settings, RefFrames : 16 frames
Codec ID : V_MPEG4/ISO/AVC
Duration : 23 min 43 s
Bit rate : 10 000 kb/s
Width : 1 920 pixels
Height : 1 080 pixels
Display aspect ratio : 16:9
Frame rate mode : Constant
Frame rate : 23.976 (24000/1001) FPS
Color space : YUV
Chroma subsampling : 4:2:0
Bit depth : 8 bits
Scan type : Progressive
Bits/(Pixel*Frame) : 0.201
Stream size : 1.66 GiB (93%)
Writing library : x264 core 157 r2969 d4099dd
Encoding settings : cabac=1 / ref=16 / deblock=1:0:0 / analyse=0x3:0x133 / me=tesa / subme=11 / psy=1 / psy_rd=1.00:0.00 / mixed_ref=1 / me_range=24 / chroma_me=1 / trellis=2 / 8x8dct=1 / cqm=0 / deadzone=21,11 / fast_pskip=0 / chroma_qp_offset=-2 / threads=12 / lookahead_threads=3 / sliced_threads=0 / nr=0 / decimate=1 / interlaced=0 / bluray_compat=0 / constrained_intra=0 / bframes=16 / b_pyramid=2 / b_adapt=2 / b_bias=0 / direct=3 / weightb=1 / open_gop=0 / weightp=2 / keyint=240 / keyint_min=23 / scenecut=40 / intra_refresh=0 / rc_lookahead=60 / rc=2pass / mbtree=1 / bitrate=10000 / ratetol=1.0 / qcomp=0.60 / qpmin=0 / qpmax=69 / qpstep=4 / cplxblur=20.0 / qblur=0.5 / ip_ratio=1.40 / aq=1:1.00
Default : Yes
Forced : No

Audio
ID : 1
Format : FLAC
Format/Info : Free Lossless Audio Codec
Codec ID : A_FLAC
Duration : 23 min 43 s
Bit rate mode : Variable
Bit rate : 752 kb/s
Channel(s) : 2 channels
Channel positions : Front: L R
Sampling rate : 48.0 kHz
Frame rate : 11.719 FPS (4096 SPF)
Bit depth : 16 bits
Stream size : 128 MiB (7%)
Writing library : libFLAC 1.2.1 (UTC 2007-09-17)
Default : Yes
Forced : No

Menu
00:00:00.000 : en:00:00:00.000
00:01:14.992 : en:00:01:14.992
00:02:45.040 : en:00:02:45.040
00:12:27.038 : en:00:12:27.038
00:21:56.023 : en:00:21:56.023
00:23:26.030 : en:00:23:26.030


Screenshots

Hidan no Aria AA (2015)

Hidan no Aria AA (2015)

Hidan no Aria AA (2015)


My publications | Rss Channel