Tags
Language
Tags

Rou Kyuu Bu! SS (2013)

Posted By:
Rou Kyuu Bu! SS (2013)

Rou Kyuu Bu! SS (2013)
BDRip | MKV | 1920x1080 | H264@~10000 Kbps | 12x ~ 24mn | 12x ~1.8 Gb
Japanese FLAC@1464 Kbps | 2 channels | Subtitles: None
Genre: basketball, loli, novel, school life


Description:
* Based on Aoyama Sagu's sports comedy light novel series Rou Kyuu Bu!

Subaru Hasegawa continues to coach Tomoka's elementary school basketball team, when suddenly, the children are faced with new 5th-grader basketball adversaries. Tomoka, Airi, Saki, Hinata, and Maho must band together to grow even more, as players and as people.




01. Innocent World!
02. Flying Battle!
03. Paradigm Ginga
04. The Stupid Man
05. Overnight Sensation!
06. Aoi Wins?
07. Win, Again?
08. I Wish with You
09. Don`t Wanna Cry
10. Wanna Be a Gamemaker
11. Dearests
12. Because You`re Here, Tomoka


General
Format : Matroska
Format version : Version 4 / Version 2
File size : 1.90 GiB
Duration : 23 min 42 s
Overall bit rate mode : Variable
Overall bit rate : 11.5 Mb/s
Encoded date : UTC 2021-02-25 08:42:50
Writing application : mkvmerge v32.0.0 ('Astral Progressions') 64-bit
Writing library : libebml v1.3.7 + libmatroska v1.5.0

Video
ID : 2
Format : AVC
Format/Info : Advanced Video Codec
Format profile : High@L5.1
Format settings : CABAC / 16 Ref Frames
Format settings, CABAC : Yes
Format settings, RefFrames : 16 frames
Codec ID : V_MPEG4/ISO/AVC
Duration : 23 min 42 s
Bit rate : 10 000 kb/s
Width : 1 920 pixels
Height : 1 080 pixels
Display aspect ratio : 16:9
Frame rate mode : Constant
Frame rate : 23.976 (24000/1001) FPS
Color space : YUV
Chroma subsampling : 4:2:0
Bit depth : 8 bits
Scan type : Progressive
Bits/(Pixel*Frame) : 0.201
Stream size : 1.66 GiB (87%)
Writing library : x264 core 157 r2969 d4099dd
Encoding settings : cabac=1 / ref=16 / deblock=1:0:0 / analyse=0x3:0x133 / me=tesa / subme=11 / psy=1 / psy_rd=1.00:0.00 / mixed_ref=1 / me_range=24 / chroma_me=1 / trellis=2 / 8x8dct=1 / cqm=0 / deadzone=21,11 / fast_pskip=0 / chroma_qp_offset=-2 / threads=12 / lookahead_threads=3 / sliced_threads=0 / nr=0 / decimate=1 / interlaced=0 / bluray_compat=0 / constrained_intra=0 / bframes=16 / b_pyramid=2 / b_adapt=2 / b_bias=0 / direct=3 / weightb=1 / open_gop=0 / weightp=2 / keyint=240 / keyint_min=23 / scenecut=40 / intra_refresh=0 / rc_lookahead=60 / rc=2pass / mbtree=1 / bitrate=10000 / ratetol=1.0 / qcomp=0.60 / qpmin=0 / qpmax=69 / qpstep=4 / cplxblur=20.0 / qblur=0.5 / ip_ratio=1.40 / aq=1:1.00
Default : Yes
Forced : No

Audio
ID : 1
Format : FLAC
Format/Info : Free Lossless Audio Codec
Codec ID : A_FLAC
Duration : 23 min 42 s
Bit rate mode : Variable
Bit rate : 1 464 kb/s
Channel(s) : 2 channels
Channel positions : Front: L R
Sampling rate : 48.0 kHz
Frame rate : 11.719 FPS (4096 SPF)
Bit depth : 24 bits
Stream size : 248 MiB (13%)
Writing library : libFLAC 1.2.1 (UTC 2007-09-17)
Default : Yes
Forced : No

Menu
00:00:00.000 : en:00:00:00.000
00:00:55.055 : en:00:00:55.055
00:02:25.020 : en:00:02:25.020
00:09:42.081 : en:00:09:42.081
00:21:56.023 : en:00:21:56.023
00:23:26.030 : en:00:23:26.030


Screenshots

Rou Kyuu Bu! SS 			  		  		  	 			   		  	   		  		  		 	    	 			   		  	   		   	  		   	  	 			   		 		   		   				 (2013)

Rou Kyuu Bu! SS (2013)

Rou Kyuu Bu! SS (2013)


My publications | Rss Channel