Tags
Language
Tags

Ore, Twintail ni Narimasu. (2014)

Posted By: Lebedev30
Ore, Twintail ni Narimasu. (2014)

Ore, Twintail ni Narimasu. (2014)
BDRip | MKV | 1920x1080 | H264@~10000 Kbps | 12x ~ 24mn | 12x ~1.8 Gb
Japanese FLAC@783 Kbps | 2 channels | Subtitles: None
Genre: action, comedy, fantasy, harem, large breasts, novel, small breasts, super power


Description:
Mitsuka Souji is a first year high school student who greatly loves twintails. One day, a beautiful girl named Thuearle, who comes from another world, suddenly appeared in front of him and gave him the power to transform into the twintails warrior Tail Red. Now Souji must fight in order to protect the peace on Earth with the help of his childhood friend Tsube Aika, who can becomes the twintails warrior Tail Blue, all while keeping the twintails warriors' real identities hidden and dealing with the fact that Tail Red is actually female.






01. Earth Is a Twin-Tail World
02. A Twin-Tail Mystery!?
03. The Azure Surge! Tailblue
04. Ferocity: Twin Battle!
05. The Third Twin-Tail!
06. Brake Release!! Tailyellow
07. A Passionate Debut! Dark Grasper
08. Erina`s First…
09. Smash! Chaosic Infinite
10. How Come?! I`m in Bad Shape
11. Red on the Ropes
12. Twin-Tails Forever


General
Format : Matroska
Format version : Version 4 / Version 2
File size : 1.82 GiB
Duration : 24 min 13 s
Overall bit rate mode : Variable
Overall bit rate : 10.8 Mb/s
Encoded date : UTC 2021-04-17 14:21:37
Writing application : mkvmerge v32.0.0 ('Astral Progressions') 64-bit
Writing library : libebml v1.3.7 + libmatroska v1.5.0

Video
ID : 2
Format : AVC
Format/Info : Advanced Video Codec
Format profile : High@L5.1
Format settings : CABAC / 16 Ref Frames
Format settings, CABAC : Yes
Format settings, RefFrames : 16 frames
Codec ID : V_MPEG4/ISO/AVC
Duration : 24 min 12 s
Bit rate : 10 000 kb/s
Width : 1 920 pixels
Height : 1 080 pixels
Display aspect ratio : 16:9
Frame rate mode : Constant
Frame rate : 23.976 (24000/1001) FPS
Color space : YUV
Chroma subsampling : 4:2:0
Bit depth : 8 bits
Scan type : Progressive
Bits/(Pixel*Frame) : 0.201
Stream size : 1.69 GiB (93%)
Writing library : x264 core 157 r2969 d4099dd
Encoding settings : cabac=1 / ref=16 / deblock=1:0:0 / analyse=0x3:0x133 / me=tesa / subme=11 / psy=1 / psy_rd=1.00:0.00 / mixed_ref=1 / me_range=24 / chroma_me=1 / trellis=2 / 8x8dct=1 / cqm=0 / deadzone=21,11 / fast_pskip=0 / chroma_qp_offset=-2 / threads=12 / lookahead_threads=3 / sliced_threads=0 / nr=0 / decimate=1 / interlaced=0 / bluray_compat=0 / constrained_intra=0 / bframes=16 / b_pyramid=2 / b_adapt=2 / b_bias=0 / direct=3 / weightb=1 / open_gop=0 / weightp=2 / keyint=240 / keyint_min=23 / scenecut=40 / intra_refresh=0 / rc_lookahead=60 / rc=2pass / mbtree=1 / bitrate=10000 / ratetol=1.0 / qcomp=0.60 / qpmin=0 / qpmax=69 / qpstep=4 / cplxblur=20.0 / qblur=0.5 / ip_ratio=1.40 / aq=1:1.00
Default : Yes
Forced : No

Audio
ID : 1
Format : FLAC
Format/Info : Free Lossless Audio Codec
Codec ID : A_FLAC
Duration : 24 min 13 s
Bit rate mode : Variable
Bit rate : 783 kb/s
Channel(s) : 2 channels
Channel positions : Front: L R
Sampling rate : 48.0 kHz
Frame rate : 11.719 FPS (4096 SPF)
Bit depth : 16 bits
Stream size : 136 MiB (7%)
Writing library : libFLAC 1.2.1 (UTC 2007-09-17)
Default : Yes
Forced : No

Menu
00:00:00.000 : en:00:00:00.000
00:02:08.003 : en:00:02:08.003
00:03:38.009 : en:00:03:38.009
00:12:53.940 : en:00:12:53.940
00:22:10.955 : en:00:22:10.955
00:23:40.961 : en:00:23:40.961


Screenshots

Ore, Twintail ni Narimasu. (2014)

Ore, Twintail ni Narimasu. (2014)

Ore, Twintail ni Narimasu. (2014)


My publications | Rss Channel