Tags
Language
Tags

Tenshi na Konamaiki (2002-2003)

Posted By: Lebedev30
Tenshi na Konamaiki (2002-2003)

Tenshi na Konamaiki (2002-2003)
DVDRip | MKV | 712x478 | H264@~2000 Kbps | 50x ~ 24mn | 50x ~430 Mb
Japanese AC3@448 Kbps | 2 channels | Subtitles: None
Genre: comedy, fantasy, high school, manga, reverse harem, romance, school life, shounen


Description:
Amatsuka Megumi, an attractive tomboy, actually used to be a boy — that was six years ago at the age of nine…

Back then Megumi encountered a magician near the river bank, initially intent on clobbering the old man with his toy sword, he ends up protecting him from several hoodlums, much to Hanakain Miki's dismay, who despises any form of fighting. The old man indulges Megumi's outright request for a reward, and gives him a mysterious, supposedly magic book. After getting into another fight, a drop of Megumi's blood spills on the strange book, accidentally summoning a small demon who offers to grant one wish. Without hesitation Megumi wishes for:

"I want to be number one in the world. A real man! A man inside a man, please!"

The wish is instantly granted, but the demon misunderstands, instead of becoming more manly, Megumi is turned into a girl. The demon cannot undo the wish, though, pointing out that the wish will only last for ten years. Enraged Megumi throws the book and the demon into the river. From then on no one other than Miki remembers that Megumi was ever anything other than a girl. Megumi has been searching for the magic book and the old man ever since, in the hopes of changing back.

Now in high school, adored by every boy and admired by most girls in class, Megumi still has a hard time coping with his feminine side, much to Miki's exasperation, who has been trying to coach Megumi to become more lady-like. Megumi may well have to accept his fate of living in a woman's body… or does she?






01. Meeting at Full Speed. Is the Angel Male or Female?
02. What`s Wrong? My Angel!
03. This Is the Man`s Hand That Defeats All with a Single Blow!
04. The Angel Dances Down from the Sky…
05. I Love You! I Love You Too!
06. Let`s Try to Get Closer to Her Secret!
07. I Will Become a Woman!!?
08. Such an Annoying Guy. Righteous Idiot, Kobayashi
09. A Magical Book! I Don`t Want Megumi to Be a Guy!
10. Smash It! The Little Demon`s Curse!!
11. It`s a Date Megu, I`ll Show You What a Great Guy I Can Be!
12. I Am Cursed After All!
13. Somehow Osaka?! The Dreaming Girl Is a Big Thief?! (Why Osaka!?)
14. I Want to Die Between Your Soft White Legs!!
15. We Can Meet the Old Magician!
16. Don`t Point to My Weakness! Giant Crayfish Fishing.
17. The Worst Person Has Come! Keiko Appears!!
18. Man`s Battle! A Warrior and an Average Guy?!
19. Megumi vs. Keiko: I Will Raise a Strong Man!
20. Miki`s Fiance!? I`ll Protect You No Matter What!
21. Operation Marriage Interference! No Miki for the Smooth-Talking Bastard!!
22. Forget Credentials and Politics! This Is the Power of Love!
23. Of Course There Are Decent Men! Mother Has a Very Surprising Interview!
24. Soga`s Woman? My Cute Legs Will Take Her Out!
25. The Woman`s Enemy, Genzo!? What Is the Scar on His Cheek~!
26. Don`t Hold Me in Your Arms! Who Is Setsuka!?
27. A Kiss!? My Curse Is Loosened!
28. I`m Changing Back to a Boy! It`s a Showdown!!
29. You Pervert Bastard, Beautiful Megu Will Take Care of You!
30. A Punishment or a Curse!? Not Bad, Genzo!
31. Megu in a Locked Room! Men Are All Trouble!
32. The Girl Keiko Fell in Love With! M-Me~!?
33. Can You Beat the Little Devil`s Magic? Pervert Power!
34. A Must-See! An Apron-Clad Megumi!! A Cooking Contest!
35. Genzo, You Can`t Run Away! It`s Seppuku for You~!
36. Megu`s Yukata Appearance! Why Are You Running Away~!
37. Yamato Nadeshiko Cup Part 1, Who Is the Fated Partner!? Fujiki Sees a Hawk
38. Yamato Nadeshiko Cup Part 2, Who`s Afraid of a Boxer`s Punch! Megu Executes with Grace!
39. Yamato Nadeshiko Cup Part 3, Megumi VS Keiko It`s a Ghostly Battle!
40. Yamato Nadeshiko Cup Part 4, Yanagizawa`s Revenge It`s Okay, I`m Not a Girl
41. Yamato Nadeshiko Cup Part 5, Miki Gets Angry! Who`s a Man? Stupid Megumi!
42. Yamato Nadeshiko Cup Part 6, I`m Strong. If You Make It Seem Like I Cried, Then I`ll Crush You and End Everything!
43. A Date with a Prince!? Megu Is a Princess!?
44. Kappa Kappa Fujiki? I Saw a Mermaid in the Midsummer Sea!
45. The Stone-Breaking Samurai - If You Want Miki, You`ll Have to Defeat Me First!
46. It`s Our Field Trip! It`s a Confession! It`s the Love Comedy Samurai~?!
47. I`m Miki`s Prince! Hiyo, Silver~!!
48. Gakusan`s Game Begins! Fujiki`s "Love" Explosion~!!
49. Reach to Miki`s Confined Heart, Rock-Breaking Power!
50. Kiss, the Magic Will Be Dispelled! Is the Angel a Boy or a Girl?


General
Format : Matroska
Format version : Version 4 / Version 2
File size : 432 MiB
Duration : 24 min 37 s
Overall bit rate : 2 450 kb/s
Encoded date : UTC 2021-03-31 20:42:47
Writing application : mkvmerge v32.0.0 ('Astral Progressions') 64-bit
Writing library : libebml v1.3.7 + libmatroska v1.5.0

Video
ID : 2
Format : AVC
Format/Info : Advanced Video Codec
Format profile : High@L4
Format settings : CABAC / 16 Ref Frames
Format settings, CABAC : Yes
Format settings, RefFrames : 16 frames
Codec ID : V_MPEG4/ISO/AVC
Duration : 24 min 37 s
Bit rate : 2 000 kb/s
Width : 712 pixels
Height : 478 pixels
Display aspect ratio : 3:2
Frame rate mode : Constant
Frame rate : 23.976 (24000/1001) FPS
Color space : YUV
Chroma subsampling : 4:2:0
Bit depth : 8 bits
Scan type : Progressive
Bits/(Pixel*Frame) : 0.245
Stream size : 352 MiB (82%)
Writing library : x264 core 157 r2969 d4099dd
Encoding settings : cabac=1 / ref=16 / deblock=1:0:0 / analyse=0x3:0x133 / me=tesa / subme=11 / psy=1 / psy_rd=1.00:0.00 / mixed_ref=1 / me_range=24 / chroma_me=1 / trellis=2 / 8x8dct=1 / cqm=0 / deadzone=21,11 / fast_pskip=0 / chroma_qp_offset=-2 / threads=12 / lookahead_threads=3 / sliced_threads=0 / nr=0 / decimate=1 / interlaced=0 / bluray_compat=0 / constrained_intra=0 / bframes=16 / b_pyramid=2 / b_adapt=2 / b_bias=0 / direct=3 / weightb=1 / open_gop=0 / weightp=2 / keyint=240 / keyint_min=23 / scenecut=40 / intra_refresh=0 / rc_lookahead=60 / rc=2pass / mbtree=1 / bitrate=2000 / ratetol=1.0 / qcomp=0.60 / qpmin=0 / qpmax=69 / qpstep=4 / cplxblur=20.0 / qblur=0.5 / ip_ratio=1.40 / aq=1:1.00
Default : Yes
Forced : No

Audio
ID : 1
Format : AC-3
Format/Info : Audio Coding 3
Codec ID : A_AC3
Duration : 24 min 36 s
Bit rate mode : Constant
Bit rate : 448 kb/s
Channel(s) : 2 channels
Channel positions : Front: L R
Sampling rate : 48.0 kHz
Frame rate : 31.250 FPS (1536 SPF)
Bit depth : 16 bits
Compression mode : Lossy
Stream size : 78.9 MiB (18%)
Service kind : Complete Main
Default : Yes
Forced : No


Screenshots

Tenshi na Konamaiki (2002-2003)

Tenshi na Konamaiki (2002-2003)

Tenshi na Konamaiki (2002-2003)


My publications | Rss Channel