Tags
Language
Tags
December 2022
Su Mo Tu We Th Fr Sa
27 28 29 30 1 2 3
4 5 6 7 8 9 10
11 12 13 14 15 16 17
18 19 20 21 22 23 24
25 26 27 28 29 30 31

Fight Ippatsu! Juuden-chan!! (2009)

Posted By: Lebedev30
Fight Ippatsu! Juuden-chan!! (2009)

Fight Ippatsu! Juuden-chan!! (2009)
BDRip | MKV | 1920x1080 | H264@~10000 Kbps | 12x ~ 24mn | 12x ~1.9 Gb
Japanese FLAC@731 Kbps | 2 channels | Subtitles: None
Genre: comedy, ecchi, large breasts, parallel world, science fiction, seinen, small breasts


Description:
* Based on a seinen manga by Ditama Bow, serialised in Comic Gum.

Juuden-chan is the name given to a group of special girls from a different dimension who use electricity to cheer up suicidal people. To find the people in need, Plug uses a device that tells her a persons level of depression — A being worst, F being happiest. Since Plug and her co-workers come from a different dimension, they can fly, pass through things, and pull magic plugs out of power transformers. Plug tries her best, but encounters, Oumi Sento, a boy who can both see and touch her — usually with a baseball bat. Unfortunately for Plug, his sister is her assignment and she has to get past him to 'charge' her up.






01. Plug in!
02. Timing!
03. Lock on!
04. Iono Crisis
05. Happening!
06. Counter-Current
07. Maid in Aresta!
08. Craziness and Kindness
09. Audit Office Special Department - Short-Circuit Girls
10. Present!?
11. Vigilance Required! Discharge Girl!
12. Fight! One Shot!


General
Format : Matroska
Format version : Version 4 / Version 2
File size : 1.91 GiB
Duration : 25 min 25 s
Overall bit rate mode : Variable
Overall bit rate : 10.7 Mb/s
Encoded date : UTC 2021-05-22 08:47:11
Writing application : mkvmerge v32.0.0 ('Astral Progressions') 64-bit
Writing library : libebml v1.3.7 + libmatroska v1.5.0

Video
ID : 2
Format : AVC
Format/Info : Advanced Video Codec
Format profile : High@L5.1
Format settings : CABAC / 16 Ref Frames
Format settings, CABAC : Yes
Format settings, RefFrames : 16 frames
Codec ID : V_MPEG4/ISO/AVC
Duration : 25 min 25 s
Bit rate : 10 000 kb/s
Width : 1 916 pixels
Height : 1 068 pixels
Display aspect ratio : 16:9
Frame rate mode : Constant
Frame rate : 23.976 (24000/1001) FPS
Color space : YUV
Chroma subsampling : 4:2:0
Bit depth : 8 bits
Scan type : Progressive
Bits/(Pixel*Frame) : 0.204
Stream size : 1.78 GiB (93%)
Writing library : x264 core 157 r2969 d4099dd
Encoding settings : cabac=1 / ref=16 / deblock=1:0:0 / analyse=0x3:0x133 / me=tesa / subme=11 / psy=1 / psy_rd=1.00:0.00 / mixed_ref=1 / me_range=24 / chroma_me=1 / trellis=2 / 8x8dct=1 / cqm=0 / deadzone=21,11 / fast_pskip=0 / chroma_qp_offset=-2 / threads=12 / lookahead_threads=3 / sliced_threads=0 / nr=0 / decimate=1 / interlaced=0 / bluray_compat=0 / constrained_intra=0 / bframes=16 / b_pyramid=2 / b_adapt=2 / b_bias=0 / direct=3 / weightb=1 / open_gop=0 / weightp=2 / keyint=240 / keyint_min=23 / scenecut=40 / intra_refresh=0 / rc_lookahead=60 / rc=2pass / mbtree=1 / bitrate=10000 / ratetol=1.0 / qcomp=0.60 / qpmin=0 / qpmax=69 / qpstep=4 / cplxblur=20.0 / qblur=0.5 / ip_ratio=1.40 / aq=1:1.00
Default : Yes
Forced : No

Audio
ID : 1
Format : FLAC
Format/Info : Free Lossless Audio Codec
Codec ID : A_FLAC
Duration : 25 min 25 s
Bit rate mode : Variable
Bit rate : 731 kb/s
Channel(s) : 2 channels
Channel positions : Front: L R
Sampling rate : 48.0 kHz
Frame rate : 11.719 FPS (4096 SPF)
Bit depth : 16 bits
Stream size : 133 MiB (7%)
Writing library : libFLAC 1.3.3 (UTC 2019-08-04)
Default : Yes
Forced : No

Menu
00:00:00.000 : en:Warning+Avant
00:02:58.045 : en:A Part
00:12:03.056 : en:B Part
00:23:07.052 : en:Ending
00:24:37.009 : en:C Part
00:24:55.027 : en:Yokoku


Screenshots

Fight Ippatsu! Juuden-chan!! (2009)

Fight Ippatsu! Juuden-chan!! (2009)

Fight Ippatsu! Juuden-chan!! (2009)


My publications | Rss Channel