Tags
Language
Tags
November 2022
Su Mo Tu We Th Fr Sa
30 31 1 2 3 4 5
6 7 8 9 10 11 12
13 14 15 16 17 18 19
20 21 22 23 24 25 26
27 28 29 30 1 2 3

Gekkan Shoujo Nozaki-kun (2014)

Posted By: Lebedev30
Gekkan Shoujo Nozaki-kun (2014)

Gekkan Shoujo Nozaki-kun (2014)
BDRip | MKV | 1920x1080 | H264@~10000 Kbps | 12x ~ 24mn | 12x ~1.7 Gb
Japanese FLAC@706 Kbps | 2 channels | Subtitles: None
Genre: comedy, daily life, high school, romance, school life, shounen, the arts


Description:
High school student Sakura Chiyo has a crush on schoolmate Nozaki Umetarou, but when she confesses her love to him, he mistakes her for a fan and gives her an autograph. When she says that she always wants to be with him, he invites her to his house, but has her help on some drawings. Chiyo discovers that Umetarou is actually a renowned shoujo manga artist named Yumeno Sakiko, and agrees to be his assistant. As they work on his manga Let's Love, they encounter other schoolmates who assist them or serve as inspirations for characters in the stories.




01. This Love… Is Being Turned Into a Shojo Manga.
02. Say Hello to the New Heroine
03. Violence vs. the Prince
04. There Are Times When Men Must Fight.
05. The Man Who Envisions Love
06. I`ll Cast a Spell on You
07. The Manga Artist`s Brain, Nozaki-kun
08. The Prince (Girl) of the School`s Problems
09. Do You Have Enough Excitement?
10. What`s Strengthened Is Our Bond and Our Reins
11. Let`s Rice
12. If This Feeling Isn`t Love, Then There Is No Love in the World.


General
Format : Matroska
Format version : Version 4 / Version 2
File size : 1.79 GiB
Duration : 23 min 56 s
Overall bit rate mode : Variable
Overall bit rate : 10.7 Mb/s
Encoded date : UTC 2021-08-26 10:27:53
Writing application : mkvmerge v32.0.0 ('Astral Progressions') 64-bit
Writing library : libebml v1.3.7 + libmatroska v1.5.0

Video
ID : 2
Format : AVC
Format/Info : Advanced Video Codec
Format profile : High@L5.1
Format settings : CABAC / 16 Ref Frames
Format settings, CABAC : Yes
Format settings, RefFrames : 16 frames
Codec ID : V_MPEG4/ISO/AVC
Duration : 23 min 56 s
Bit rate : 10 000 kb/s
Width : 1 920 pixels
Height : 1 080 pixels
Display aspect ratio : 16:9
Frame rate mode : Constant
Frame rate : 23.976 (24000/1001) FPS
Color space : YUV
Chroma subsampling : 4:2:0
Bit depth : 8 bits
Scan type : Progressive
Bits/(Pixel*Frame) : 0.201
Stream size : 1.67 GiB (93%)
Writing library : x264 core 157 r2969 d4099dd
Encoding settings : cabac=1 / ref=16 / deblock=1:0:0 / analyse=0x3:0x133 / me=tesa / subme=11 / psy=1 / psy_rd=1.00:0.00 / mixed_ref=1 / me_range=24 / chroma_me=1 / trellis=2 / 8x8dct=1 / cqm=0 / deadzone=21,11 / fast_pskip=0 / chroma_qp_offset=-2 / threads=12 / lookahead_threads=3 / sliced_threads=0 / nr=0 / decimate=1 / interlaced=0 / bluray_compat=0 / constrained_intra=0 / bframes=16 / b_pyramid=2 / b_adapt=2 / b_bias=0 / direct=3 / weightb=1 / open_gop=0 / weightp=2 / keyint=240 / keyint_min=23 / scenecut=40 / intra_refresh=0 / rc_lookahead=60 / rc=2pass / mbtree=1 / bitrate=10000 / ratetol=1.0 / qcomp=0.60 / qpmin=0 / qpmax=69 / qpstep=4 / cplxblur=20.0 / qblur=0.5 / ip_ratio=1.40 / aq=1:1.00
Default : Yes
Forced : No

Audio
ID : 1
Format : FLAC
Format/Info : Free Lossless Audio Codec
Codec ID : A_FLAC
Duration : 23 min 56 s
Bit rate mode : Variable
Bit rate : 706 kb/s
Channel(s) : 2 channels
Sampling rate : 48.0 kHz
Frame rate : 11.719 FPS (4096 SPF)
Bit depth : 16 bits
Stream size : 121 MiB (7%)
Writing library : libFLAC 1.2.1 (UTC 2007-09-17)
Default : Yes
Forced : No

Menu
00:00:00.000 : :intro
00:02:18.013 : :OP
00:03:48.019 : :part A
00:11:09.961 : :part B
00:21:19.945 : :ED
00:22:49.910 : :part C
00:23:40.919 : :preview


Screenshots

Gekkan Shoujo Nozaki-kun (2014)

Gekkan Shoujo Nozaki-kun (2014)

Gekkan Shoujo Nozaki-kun (2014)


My publications | Rss Channel