Tags
Language
Tags

Koi to Senkyo to Chocolate (2012)

Posted By: Lebedev30
Koi to Senkyo to Chocolate (2012)

Koi to Senkyo to Chocolate (2012)
BDRip | MKV | 1920x1080 | H264@~10000 Kbps | 13x ~ 24mn | 13x ~2 Gb
Japanese PCM@2304 Kbps | 2 channels | Subtitles: None
Genre: female student, harem, high school, romance, school clubs, school life


Description:
Oojima Yuuki attends the private Takafuji Academy, a large school with over 6,000 students. He is a member of the Food Research Club, along with seven others, including his childhood friend Sumiyoshi Chisato. The members leisurely spend their time in the club, not participating in many activities. When the election of the next student council president comes up, the front runner, Shinonome Satsuki, proposes that clubs with no merit should be identified and subsequently abolished. The Food Research Club, in an act of desperation, seeks advice from the current student council president, Mouri Yakumo, who suggests Yuuki run in the election as an opposing candidate. Yuuki learns of the problems the school faces and decides to run in the election.






01. Disbanding the Club!
02. Running in the Election!
03. Strategy!
04. Funding!
05. Festivities!
06. Counting Votes!
07. The Camp!
08. The Truth!
09. Accident!
10. Entangled!
11. Search!
12. Voting!
S1. Love Sister!


General
Format : Matroska
Format version : Version 4 / Version 2
File size : 2.09 GiB
Duration : 24 min 19 s
Overall bit rate : 12.3 Mb/s
Encoded date : UTC 2021-06-14 21:02:55
Writing application : mkvmerge v32.0.0 ('Astral Progressions') 64-bit
Writing library : libebml v1.3.7 + libmatroska v1.5.0

Video
ID : 1
Format : AVC
Format/Info : Advanced Video Codec
Format profile : High@L5.1
Format settings : CABAC / 16 Ref Frames
Format settings, CABAC : Yes
Format settings, RefFrames : 16 frames
Codec ID : V_MPEG4/ISO/AVC
Duration : 24 min 19 s
Bit rate : 10 000 kb/s
Width : 1 920 pixels
Height : 1 080 pixels
Display aspect ratio : 16:9
Frame rate mode : Constant
Frame rate : 23.976 (24000/1001) FPS
Color space : YUV
Chroma subsampling : 4:2:0
Bit depth : 8 bits
Scan type : Progressive
Bits/(Pixel*Frame) : 0.201
Stream size : 1.70 GiB (81%)
Writing library : x264 core 157 r2969 d4099dd
Encoding settings : cabac=1 / ref=16 / deblock=1:0:0 / analyse=0x3:0x133 / me=tesa / subme=11 / psy=1 / psy_rd=1.00:0.00 / mixed_ref=1 / me_range=24 / chroma_me=1 / trellis=2 / 8x8dct=1 / cqm=0 / deadzone=21,11 / fast_pskip=0 / chroma_qp_offset=-2 / threads=12 / lookahead_threads=3 / sliced_threads=0 / nr=0 / decimate=1 / interlaced=0 / bluray_compat=0 / constrained_intra=0 / bframes=16 / b_pyramid=2 / b_adapt=2 / b_bias=0 / direct=3 / weightb=1 / open_gop=0 / weightp=2 / keyint=240 / keyint_min=23 / scenecut=40 / intra_refresh=0 / rc_lookahead=60 / rc=2pass / mbtree=1 / bitrate=10000 / ratetol=1.0 / qcomp=0.60 / qpmin=0 / qpmax=69 / qpstep=4 / cplxblur=20.0 / qblur=0.5 / ip_ratio=1.40 / aq=1:1.00
Default : Yes
Forced : No

Audio
ID : 2
Format : PCM
Format settings : Little / Signed
Codec ID : A_PCM/INT/LIT
Duration : 24 min 19 s
Bit rate mode : Constant
Bit rate : 2 304 kb/s
Channel(s) : 2 channels
Sampling rate : 48.0 kHz
Frame rate : 32.000 FPS (1500 SPF)
Bit depth : 24 bits
Stream size : 401 MiB (19%)
Default : Yes
Forced : No

Menu
00:00:00.000 : :Avant
00:02:10.004 : :OP
00:03:39.844 : :Part A
00:11:43.327 : :Part B
00:22:11.038 : :ED
00:23:41.795 : :Next


Screenshots

Koi to Senkyo to Chocolate (2012)

Koi to Senkyo to Chocolate (2012)

Koi to Senkyo to Chocolate (2012)


My publications | Rss Channel