Tags
Language
Tags
April 2024
Su Mo Tu We Th Fr Sa
31 1 2 3 4 5 6
7 8 9 10 11 12 13
14 15 16 17 18 19 20
21 22 23 24 25 26 27
28 29 30 1 2 3 4

Macross Frontier (2007-2008)

Posted By: Lebedev30
Macross Frontier (2007-2008)

Macross Frontier (2007-2008)
BDRip | MKV | 1920x1080 | H264@~10000 Kbps | 25x ~ 24mn | 25x ~2.1 Gb
Japanese FLAC@1635 Kbps | 2 channels | Subtitles: None
Genre: action, alien, humanoid alien, idol, love polygon, mecha, military, piloted robot, romance, science fiction, seinen, space travel, transforming craft, violent retribution for accidental infringement


Description:
Macross F sets out in the year 2059 A.D. The "F" is short for "Frontier", which is also the name of the migration fleet this story is about.
We join the fleet's journey when the concert of the famous pop-idol Sheryl Nome, is just around the corner. Sheryl is visiting Frontier from Macross Galaxy (another colonisation fleet), on her tour around the galaxy.
Just like with the Macross Seven migration fleet, the main ship is a huge city-dome. This is the home of the majority of the fleet's population, on the scale of 10 million people. It is a place where they can live life, just as they would back on Earth.
However peace is soon broken when strange alien creatures attack the fleet, just when Sheryl's concert is well underway.

What could it be that have drawn them to this fleet? Is Sheryl the only one on board with a talent for singing? What secrets will we learn about the past? And what cool new Valkyries will be revealed for this show?

Follow the series to find out all that, along with music and dogfights, that will take the Macross universe to a new high.






01. Close Encounter
02. Hard Chase
03. On Your Marks
04. Miss Macross
05. Star Date
06. Bye Bye Sheryl
07. First Attack
08. High School Queen
09. Friendly Fire
10. Legend of Zero
11. Missing Birthday
12. Fastest Delivery
13. Memory of Global
14. Mother`s Lullaby
15. Lost Peace
16. Ranka Attack
17. Goodbye Sister
18. Fold Fame
19. Triangular
20. Diamond Crevasse
21. Blue Ether
22. Northern Cross
23. True Begin
24. Last Frontier
25. Your Sound


General
Format : Matroska
Format version : Version 4 / Version 2
File size : 2.15 GiB
Duration : 26 min 26 s
Overall bit rate mode : Variable
Overall bit rate : 11.6 Mb/s
Encoded date : UTC 2021-08-03 05:40:34
Writing application : mkvmerge v32.0.0 ('Astral Progressions') 64-bit
Writing library : libebml v1.3.7 + libmatroska v1.5.0

Video
ID : 2
Format : AVC
Format/Info : Advanced Video Codec
Format profile : High@L5.1
Format settings : CABAC / 16 Ref Frames
Format settings, CABAC : Yes
Format settings, RefFrames : 16 frames
Codec ID : V_MPEG4/ISO/AVC
Duration : 26 min 26 s
Bit rate : 10 000 kb/s
Width : 1 920 pixels
Height : 1 080 pixels
Display aspect ratio : 16:9
Frame rate mode : Constant
Frame rate : 23.976 (24000/1001) FPS
Color space : YUV
Chroma subsampling : 4:2:0
Bit depth : 8 bits
Scan type : Progressive
Bits/(Pixel*Frame) : 0.201
Stream size : 1.85 GiB (86%)
Writing library : x264 core 157 r2969 d4099dd
Encoding settings : cabac=1 / ref=16 / deblock=1:0:0 / analyse=0x3:0x133 / me=tesa / subme=11 / psy=1 / psy_rd=1.00:0.00 / mixed_ref=1 / me_range=24 / chroma_me=1 / trellis=2 / 8x8dct=1 / cqm=0 / deadzone=21,11 / fast_pskip=0 / chroma_qp_offset=-2 / threads=12 / lookahead_threads=3 / sliced_threads=0 / nr=0 / decimate=1 / interlaced=0 / bluray_compat=0 / constrained_intra=0 / bframes=16 / b_pyramid=2 / b_adapt=2 / b_bias=0 / direct=3 / weightb=1 / open_gop=0 / weightp=2 / keyint=240 / keyint_min=23 / scenecut=40 / intra_refresh=0 / rc_lookahead=60 / rc=2pass / mbtree=1 / bitrate=10000 / ratetol=1.0 / qcomp=0.60 / qpmin=0 / qpmax=69 / qpstep=4 / cplxblur=20.0 / qblur=0.5 / ip_ratio=1.40 / aq=1:1.00
Default : Yes
Forced : No

Audio
ID : 1
Format : FLAC
Format/Info : Free Lossless Audio Codec
Codec ID : A_FLAC
Duration : 26 min 26 s
Bit rate mode : Variable
Bit rate : 1 635 kb/s
Channel(s) : 2 channels
Sampling rate : 48.0 kHz
Frame rate : 11.719 FPS (4096 SPF)
Bit depth : 24 bits
Stream size : 309 MiB (14%)
Writing library : libFLAC 1.2.1 (UTC 2007-09-17)
Default : Yes
Forced : No


Screenshots

Macross Frontier (2007-2008)

Macross Frontier (2007-2008)

Macross Frontier (2007-2008)


My publications | Rss Channel