Tags
Language
Tags

Needless (2009)

Posted By: Lebedev30
Needless (2009)

Needless (2009)
BDRip | MKV | 1920x1080 | H264@~10000 Kbps | 24x ~ 24mn | 24x ~1.9 Gb
Japanese PCM@1536 Kbps | 2 channels | Subtitles: None
Genre: action, comedy, ecchi, large breasts, pantsu, parody, post-apocalyptic, seinen, super power


Description:
In the year 2130 — after World War III — large contaminated areas known as Black Spots, sites of bombing, pockmarked the landmasses. One such area, devastating the centre of Tokyo, was quarantined off by large walls. Years after the war inhabitants deemed to be "unneeded" started to populate the wasteland. But among the survivors came forth those who defined themselves by their supernatural abilities — fire, wind, water, gravity, speed, strength, etc. Fearful of their powers, those in power sought to manipulate and hunt down these Needless.






01. Adam Blade
02. Eve Neuschwanstein
03. Momiji Teruyama
04. Iron Mountain
05. Simeon`s Girl Squadron
06. Goldilocks
07. Adam Arclight
08. Riru Roukakuji
09. Shelter Number 3
10. Seto & Solva
11. Black Attraction
12. Kurumi
13. Byakugo
14. Lilith Temptation
15. Fourth Wave
16. Aruka Schild
17. Resistance
18. Agni Schiwatas
19. Positive Feedback Zero
20. A-B
21. A-A
22. The Triple Six Committee
23. Saten
24. Cruz Schild


General
Format : Matroska
Format version : Version 4 / Version 2
File size : 1.91 GiB
Duration : 23 min 40 s
Overall bit rate : 11.5 Mb/s
Encoded date : UTC 2021-07-10 15:01:02
Writing application : mkvmerge v32.0.0 ('Astral Progressions') 64-bit
Writing library : libebml v1.3.7 + libmatroska v1.5.0

Video
ID : 1
Format : AVC
Format/Info : Advanced Video Codec
Format profile : High@L5.1
Format settings : CABAC / 16 Ref Frames
Format settings, CABAC : Yes
Format settings, RefFrames : 16 frames
Codec ID : V_MPEG4/ISO/AVC
Duration : 23 min 40 s
Bit rate : 10 000 kb/s
Width : 1 920 pixels
Height : 1 080 pixels
Display aspect ratio : 16:9
Frame rate mode : Constant
Frame rate : 23.976 (24000/1001) FPS
Color space : YUV
Chroma subsampling : 4:2:0
Bit depth : 8 bits
Scan type : Progressive
Bits/(Pixel*Frame) : 0.201
Stream size : 1.65 GiB (87%)
Writing library : x264 core 157 r2969 d4099dd
Encoding settings : cabac=1 / ref=16 / deblock=1:0:0 / analyse=0x3:0x133 / me=tesa / subme=11 / psy=1 / psy_rd=1.00:0.00 / mixed_ref=1 / me_range=24 / chroma_me=1 / trellis=2 / 8x8dct=1 / cqm=0 / deadzone=21,11 / fast_pskip=0 / chroma_qp_offset=-2 / threads=12 / lookahead_threads=3 / sliced_threads=0 / nr=0 / decimate=1 / interlaced=0 / bluray_compat=0 / constrained_intra=0 / bframes=16 / b_pyramid=2 / b_adapt=2 / b_bias=0 / direct=3 / weightb=1 / open_gop=0 / weightp=2 / keyint=240 / keyint_min=23 / scenecut=40 / intra_refresh=0 / rc_lookahead=60 / rc=2pass / mbtree=1 / bitrate=10000 / ratetol=1.0 / qcomp=0.60 / qpmin=0 / qpmax=69 / qpstep=4 / cplxblur=20.0 / qblur=0.5 / ip_ratio=1.40 / aq=1:1.00
Default : Yes
Forced : No

Audio
ID : 2
Format : PCM
Format settings : Little / Signed
Codec ID : A_PCM/INT/LIT
Duration : 23 min 40 s
Bit rate mode : Constant
Bit rate : 1 536 kb/s
Channel(s) : 2 channels
Sampling rate : 48.0 kHz
Frame rate : 32.000 FPS (1500 SPF)
Bit depth : 16 bits
Stream size : 260 MiB (13%)
Default : Yes
Forced : No

Menu
00:00:00.000 : en:00:00:00.000
00:01:30.007 : en:00:01:30.007
00:13:12.959 : en:00:13:12.959
00:21:54.939 : en:00:21:54.939
00:23:24.945 : en:00:23:24.945
00:23:40.961 : en:00:23:40.961


Screenshots

Needless (2009)

Needless (2009)

Needless (2009)


My publications | Rss Channel