Tags
Language
Tags

Nisekoi (2014-2015)

Posted By: Lebedev30
Nisekoi (2014-2015)

Nisekoi (2014-2015)
BDRip | MKV | 1920x1080 | H264@~10000 Kbps | 20x+12x ~ 24mn | 20x+12x ~1.9 Gb
Japanese FLAC@1410 Kbps | 2 channels | Subtitles: None
Genre: comedy, harem, high school, love polygon, romance, school life, shounen


Description:
The high school student Ichijou Raku is the son of a leader in the yakuza faction Shuei-Gumi, and Kirisaki Chitoge is the daughter of a boss in a rival gang known as Beehive. They unexpectedly meet when Chitoge hops a wall and knees Raku in the face. After she runs off, Raku realizes he has lost his pendant which was given to him by his childhood sweetheart with whom he made a secret promise. After discovering Chitoge is a new transfer student in his class, he forces her to help him look for the pendant. During the search, they begin to dislike each other.

Upon returning home, Raku learns that the Shuei-Gumi and Beehive gangs have agreed to settle their feud by pairing their leaders' children, and that his girlfriend-to-be is none other than Chitoge. For the next three years, they must pretend to be in a relationship to maintain peace between the gangs. This turns out to be quite a challenging task, not only because of their hatred for one another, but also because Raku has a crush on another schoolmate, Onodera Kosaki, whom he secretly wishes was the girl who bears the key to his pendant. Various developments complicate the situation, including Chitoge's over-protective bodyguard, a female hit man, a girl who claims to be Raku's fiancée, and the existence of multiple keys.








01. The Promise
02. Encounter
03. Two of a Kind
04. The Visit
05. Swimming
06. Borrowing and Lending
07. Rival
08. Happiness
09. Hot Springs
10. Lottery
11. Celebration
12. Confirmation
13. After School
14. Ordeal
15. Three Keys
16. Typhoon
17. Festival Day
18. At the Beach
19. The Play
20. Showtime
01. From Now On / Please Notice
02. Fate / Showdown
03. Need
04. Mother
05. Teach Me / Master Raku
06. Delicious
07. Little Sister
08. Magical Patissiere Kosaki! / Work!
09. Cleanup Day / Visiting the Sick
10. Support
11. I Want to Lose Weight / Good Morning
12. The Search / Just Testing


General
Format : Matroska
Format version : Version 4 / Version 2
File size : 1.93 GiB
Duration : 24 min 11 s
Overall bit rate mode : Variable
Overall bit rate : 11.4 Mb/s
Encoded date : UTC 2021-08-05 18:21:52
Writing application : mkvmerge v32.0.0 ('Astral Progressions') 64-bit
Writing library : libebml v1.3.7 + libmatroska v1.5.0

Video
ID : 2
Format : AVC
Format/Info : Advanced Video Codec
Format profile : High@L5.1
Format settings : CABAC / 16 Ref Frames
Format settings, CABAC : Yes
Format settings, RefFrames : 16 frames
Codec ID : V_MPEG4/ISO/AVC
Duration : 24 min 11 s
Bit rate : 10 000 kb/s
Width : 1 920 pixels
Height : 1 080 pixels
Display aspect ratio : 16:9
Frame rate mode : Constant
Frame rate : 23.976 (24000/1001) FPS
Color space : YUV
Chroma subsampling : 4:2:0
Bit depth : 8 bits
Scan type : Progressive
Bits/(Pixel*Frame) : 0.201
Stream size : 1.69 GiB (88%)
Writing library : x264 core 157 r2969 d4099dd
Encoding settings : cabac=1 / ref=16 / deblock=1:0:0 / analyse=0x3:0x133 / me=tesa / subme=11 / psy=1 / psy_rd=1.00:0.00 / mixed_ref=1 / me_range=24 / chroma_me=1 / trellis=2 / 8x8dct=1 / cqm=0 / deadzone=21,11 / fast_pskip=0 / chroma_qp_offset=-2 / threads=12 / lookahead_threads=3 / sliced_threads=0 / nr=0 / decimate=1 / interlaced=0 / bluray_compat=0 / constrained_intra=0 / bframes=16 / b_pyramid=2 / b_adapt=2 / b_bias=0 / direct=3 / weightb=1 / open_gop=0 / weightp=2 / keyint=240 / keyint_min=23 / scenecut=40 / intra_refresh=0 / rc_lookahead=60 / rc=2pass / mbtree=1 / bitrate=10000 / ratetol=1.0 / qcomp=0.60 / qpmin=0 / qpmax=69 / qpstep=4 / cplxblur=20.0 / qblur=0.5 / ip_ratio=1.40 / aq=1:1.00
Default : Yes
Forced : No

Audio
ID : 1
Format : FLAC
Format/Info : Free Lossless Audio Codec
Codec ID : A_FLAC
Duration : 24 min 11 s
Bit rate mode : Variable
Bit rate : 1 410 kb/s
Channel(s) : 2 channels
Channel positions : Front: L R
Sampling rate : 48.0 kHz
Frame rate : 11.719 FPS (4096 SPF)
Bit depth : 24 bits
Stream size : 244 MiB (12%)
Writing library : libFLAC 1.2.1 (UTC 2007-09-17)
Default : Yes
Forced : No

Menu
00:00:00.000 : en:00:00:00.000
00:01:09.987 : en:00:01:09.987
00:05:42.175 : en:00:05:42.175
00:10:22.997 : en:00:10:22.997
00:17:05.483 : en:00:17:05.483
00:20:08.958 : en:00:20:08.958
00:22:40.025 : en:00:22:40.025


Screenshots

Nisekoi (2014-2015)

Nisekoi (2014-2015)

Nisekoi (2014-2015)


My publications | Rss Channel