Tags
Language
Tags

Tantei wa Mou, Shindeiru. (2021)

Posted By: Lebedev30
Tantei wa Mou, Shindeiru. (2021)

Tantei wa Mou, Shindeiru. (2021)
WEBRip | MKV | 1920x1080 | H264@5863 Kbps | 12x ~ 25mn | 12x ~1 Gb
日本語 AAC@256 Kbps | 2 channels | Subtitles: English, Español, Português


Description:
* Based on a mystery love comedy light novel series written by Nigo Juu and illustrated by Umibouzu.

Kimizuka Kimihiko was the assistant to a beautiful detective named Siesta – until Siesta died, anyway. Now, Kimitsuka has encountered a girl who bears an uncanny resemblance to his former boss…






01. Attention Passengers: Is There a Detective on Board?
02. I Still Remember, After All This Time
03. That`s Yui-nya Quality
04. What I See in That Eye
05. That Was Directed at One Year in the Future
06. Crimson Devil, Ice Queen
07. In Time, You`ll Recall This Day
08. With That, We Set Out on a Journey Once Again
09. SPES
10. So I Can`t Become a Detective
11. A Light in the Midst of Hope
12. Those Dizzying Three Years I Spent with You


General
Format : Matroska
Format version : Version 4 / Version 2
File size : 1.02 GiB
Duration : 23 min 50 s
Overall bit rate : 6 129 kb/s
Encoded date : UTC 2021-07-29 21:39:45
Writing application : mkvmerge v55.0.0 ('Waiting For Space') 64-bit
Writing library : libebml v1.4.2 + libmatroska v1.6.4
Attachments : OpenSans-ExtraBold.ttf / OpenSans-Italic.ttf / OpenSans-Light.ttf / OpenSans-Regular.ttf / OpenSans-Semibold.ttf / MIAMA.OTF

Video
ID : 1
Format : AVC
Format/Info : Advanced Video Codec
Format profile : High@L4
Format settings : CABAC / 3 Ref Frames
Format settings, CABAC : Yes
Format settings, RefFrames : 3 frames
Codec ID : V_MPEG4/ISO/AVC
Duration : 23 min 50 s
Bit rate : 5 863 kb/s
Width : 1 920 pixels
Height : 1 080 pixels
Display aspect ratio : 16:9
Frame rate mode : Constant
Frame rate : 23.976 (24000/1001) FPS
Color space : YUV
Chroma subsampling : 4:2:0
Bit depth : 8 bits
Scan type : Progressive
Bits/(Pixel*Frame) : 0.118
Stream size : 999 MiB (96%)
Language : Japanese
Default : Yes
Forced : No
Color range : Limited
Matrix coefficients : BT.709

Audio
ID : 2
Format : AAC
Format/Info : Advanced Audio Codec
Format profile : LC
Codec ID : A_AAC-2
Duration : 23 min 50 s
Bit rate : 256 kb/s
Channel(s) : 2 channels
Channel positions : Front: L R
Sampling rate : 48.0 kHz
Frame rate : 46.875 FPS (1024 SPF)
Compression mode : Lossy
Stream size : 43.6 MiB (4%)
Language : Japanese
Default : Yes
Forced : No

Text #1
ID : 3
Format : ASS
Codec ID : S_TEXT/ASS
Codec ID/Info : Advanced Sub Station Alpha
Duration : 23 min 28 s
Bit rate : 107 b/s
Count of elements : 285
Compression mode : Lossless
Stream size : 18.4 KiB (0%)
Title : English
Language : English
Default : Yes
Forced : No

Text #2
ID : 4
Format : ASS
Codec ID : S_TEXT/ASS
Codec ID/Info : Advanced Sub Station Alpha
Duration : 23 min 28 s
Bit rate : 99 b/s
Count of elements : 269
Compression mode : Lossless
Stream size : 17.1 KiB (0%)
Title : Portuguese(Brazil)
Language : Portuguese
Default : No
Forced : No

Text #3
ID : 5
Format : ASS
Codec ID : S_TEXT/ASS
Codec ID/Info : Advanced Sub Station Alpha
Duration : 21 min 52 s
Bit rate : 109 b/s
Count of elements : 276
Compression mode : Lossless
Stream size : 17.6 KiB (0%)
Title : Spanish(Latin_America)
Language : Spanish
Default : No
Forced : No


Screenshots

Tantei wa Mou, Shindeiru. (2021)

Tantei wa Mou, Shindeiru. (2021)

Tantei wa Mou, Shindeiru. (2021)


My publications | Rss Channel