Tags
Language
Tags

Kageki Shoujo!! (2021) (1-12)

Posted By:
Kageki Shoujo!! (2021) (1-12)

Kageki Shoujo!! (2021) (1-12)
WEBRip | MKV | 1920x1080 | H264@5659 Kbps | 12x ~ 25mn | 12x ~1 Gb
日本語 AAC@256 Kbps | 2 channels | Subtitles: English, Español, Português
Genre: shoujo


Description:
* Based on a drama shoujo manga by Saiki Kumiko.

Like the Takarazuka Revue, the young women who go to the arts academy Kouka Kageki High School play all the parts of musical theater, be they female or male. Narata Ai is a jaded former idol performing female roles—her roommate, playing male roles, is bright-eyed country girl Watanabe Sarasa. From the school to the stage to the rest of their lives, there is no challenge these young women can't face with their passion for performance.






01. Beneath the Cherry Tree, in a Rain of Petals
02. Those Who Long to Cross the Silver Bridge
03. The Teddy Bear
04. Tears Overwritten
05. The Chosen Maidens
06. A Glimpse of Stardom
07. The Hanamichi and the Silver Bridge
08. Kaoru`s Summer
09. The Two Juliets
10. A Once-in-a-Century Autumn
11. 4/40
12. Surely Someone


General
Format : Matroska
Format version : Version 4 / Version 2
File size : 1.01 GiB
Duration : 24 min 24 s
Overall bit rate : 5 925 kb/s
Encoded date : UTC 2021-07-28 19:18:12
Writing application : mkvmerge v55.0.0 ('Waiting For Space') 64-bit
Writing library : libebml v1.4.2 + libmatroska v1.6.4
Attachments : OpenSans-ExtraBold.ttf / OpenSans-Italic.ttf / OpenSans-Light.ttf / OpenSans-Regular.ttf / OpenSans-Semibold.ttf / MIAMA.OTF

Video
ID : 1
Format : AVC
Format/Info : Advanced Video Codec
Format profile : High@L4
Format settings : CABAC / 3 Ref Frames
Format settings, CABAC : Yes
Format settings, RefFrames : 3 frames
Codec ID : V_MPEG4/ISO/AVC
Duration : 24 min 24 s
Bit rate : 5 659 kb/s
Width : 1 920 pixels
Height : 1 080 pixels
Display aspect ratio : 16:9
Frame rate mode : Constant
Frame rate : 23.976 (24000/1001) FPS
Color space : YUV
Chroma subsampling : 4:2:0
Bit depth : 8 bits
Scan type : Progressive
Bits/(Pixel*Frame) : 0.114
Stream size : 988 MiB (95%)
Language : Japanese
Default : Yes
Forced : No
Color range : Limited
Matrix coefficients : BT.709

Audio
ID : 2
Format : AAC
Format/Info : Advanced Audio Codec
Format profile : LC
Codec ID : A_AAC-2
Duration : 24 min 24 s
Bit rate : 256 kb/s
Channel(s) : 2 channels
Channel positions : Front: L R
Sampling rate : 48.0 kHz
Frame rate : 46.875 FPS (1024 SPF)
Compression mode : Lossy
Stream size : 44.7 MiB (4%)
Language : Japanese
Default : Yes
Forced : No

Text #1
ID : 3
Format : ASS
Codec ID : S_TEXT/ASS
Codec ID/Info : Advanced Sub Station Alpha
Duration : 24 min 8 s
Bit rate : 286 b/s
Count of elements : 552
Compression mode : Lossless
Stream size : 50.7 KiB (0%)
Title : English
Language : English
Default : Yes
Forced : No

Text #2
ID : 4
Format : ASS
Codec ID : S_TEXT/ASS
Codec ID/Info : Advanced Sub Station Alpha
Duration : 24 min 8 s
Bit rate : 296 b/s
Count of elements : 578
Compression mode : Lossless
Stream size : 52.4 KiB (0%)
Title : Portuguese(Brazil)
Language : Portuguese
Default : No
Forced : No

Text #3
ID : 5
Format : ASS
Codec ID : S_TEXT/ASS
Codec ID/Info : Advanced Sub Station Alpha
Duration : 24 min 8 s
Bit rate : 301 b/s
Count of elements : 578
Compression mode : Lossless
Stream size : 53.3 KiB (0%)
Title : Spanish(Latin_America)
Language : Spanish
Default : No
Forced : No


Screenshots

Kageki Shoujo!! (2021) (1-12)

Kageki Shoujo!! (2021) (1-12)

Kageki Shoujo!! (2021) (1-12)


My publications | Rss Channel