Tags
Language
Tags

Mahouka Koukou no Yuutousei (2021) (1-12)

Posted By:
Mahouka Koukou no Yuutousei (2021) (1-12)

Mahouka Koukou no Yuutousei (2021) (1-12)
WEBRip | MKV | 1920x1080 | H264@5997 Kbps | 12x ~ 25mn | 12x ~1 Gb
日本語 AAC@256 Kbps | 2 channels | Subtitles: English, Español, Português
Genre: fantasy, magic


Description:
* Based on a spin-off manga of Satou Tsutomu's light novel series The Irregular at Magic High School drawn by Mori Yuu.

A century has passed since magic - true magic, the stuff of legends - has returned to the world. It is spring, the season of new beginnings, and a new class of students is about to begin their studies at the First National Magic University Affiliated High School, nickname: First High.

It follows the events of the original series as seen through the eyes of Shiba Miyuki, Tatsuya's sister. The life of an honor student comes with a lot of expectations…and unexpected hidden feelings?!






01. I`ll Cherish This for the Rest of My Life
02. May I Join You?
03. The Girls` Detective Club Is Here!
04. Friends
05. I Won`t Let Anyone Interfere
06. The Nine Schools Competition Begins
07. Arithmetic Chain
08. Hell of Ice and Flames
09. Because You Were by My Side
10. I Don`t Want to Lose
11. Brother, Good Luck
12. I Will Fly!


General
Format : Matroska
Format version : Version 4 / Version 2
File size : 1.04 GiB
Duration : 23 min 52 s
Overall bit rate : 6 263 kb/s
Encoded date : UTC 2021-07-28 19:49:21
Writing application : mkvmerge v55.0.0 ('Waiting For Space') 64-bit
Writing library : libebml v1.4.2 + libmatroska v1.6.4
Attachments : OpenSans-ExtraBold.ttf / OpenSans-Italic.ttf / OpenSans-Light.ttf / OpenSans-Regular.ttf / OpenSans-Semibold.ttf / MIAMA.OTF

Video
ID : 1
Format : AVC
Format/Info : Advanced Video Codec
Format profile : High@L4
Format settings : CABAC / 3 Ref Frames
Format settings, CABAC : Yes
Format settings, RefFrames : 3 frames
Codec ID : V_MPEG4/ISO/AVC
Duration : 23 min 52 s
Bit rate : 5 997 kb/s
Width : 1 920 pixels
Height : 1 080 pixels
Display aspect ratio : 16:9
Frame rate mode : Constant
Frame rate : 23.976 (24000/1001) FPS
Color space : YUV
Chroma subsampling : 4:2:0
Bit depth : 8 bits
Scan type : Progressive
Bits/(Pixel*Frame) : 0.121
Stream size : 1 024 MiB (96%)
Language : Japanese
Default : Yes
Forced : No
Color range : Limited
Matrix coefficients : BT.709

Audio
ID : 2
Format : AAC
Format/Info : Advanced Audio Codec
Format profile : LC
Codec ID : A_AAC-2
Duration : 23 min 52 s
Bit rate : 256 kb/s
Channel(s) : 2 channels
Channel positions : Front: L R
Sampling rate : 48.0 kHz
Frame rate : 46.875 FPS (1024 SPF)
Compression mode : Lossy
Stream size : 43.7 MiB (4%)
Language : Japanese
Default : Yes
Forced : No

Text #1
ID : 3
Format : ASS
Codec ID : S_TEXT/ASS
Codec ID/Info : Advanced Sub Station Alpha
Duration : 21 min 57 s
Bit rate : 350 b/s
Count of elements : 545
Compression mode : Lossless
Stream size : 56.4 KiB (0%)
Title : English
Language : English
Default : Yes
Forced : No

Text #2
ID : 4
Format : ASS
Codec ID : S_TEXT/ASS
Codec ID/Info : Advanced Sub Station Alpha
Duration : 23 min 33 s
Bit rate : 115 b/s
Count of elements : 349
Compression mode : Lossless
Stream size : 20.0 KiB (0%)
Title : Portuguese(Brazil)
Language : Portuguese
Default : No
Forced : No

Text #3
ID : 5
Format : ASS
Codec ID : S_TEXT/ASS
Codec ID/Info : Advanced Sub Station Alpha
Duration : 21 min 57 s
Bit rate : 108 b/s
Count of elements : 319
Compression mode : Lossless
Stream size : 17.5 KiB (0%)
Title : Spanish(Latin_America)
Language : Spanish
Default : No
Forced : No


Screenshots

Mahouka Koukou no Yuutousei (2021) (1-12)

Mahouka Koukou no Yuutousei (2021) (1-12)

Mahouka Koukou no Yuutousei (2021) (1-12)


My publications | Rss Channel