Tags
Language
Tags

Re-Main (2021) (1-10)

Posted By:
Re-Main (2021) (1-10)

Re-Main (2021) (1-10)
WEBRip | MKV | 1920x1080 | H264@5655 Kbps | 10x ~ 25mn | 10x ~0.9 Gb
日本語 AAC@256 Kbps | 2 channels | Subtitles: English, Español, Português
Genre: sports


Description:
The anime's story centers on Minato, a boy who stopped playing water polo due to a certain incident in the winter of his third middle school year. He picks the sport back up again with a new team when he starts in high school, but the fledgling team runs into many problems.






01. Sorry, Who Are You?
02. I`m No Prodigy
03. But, Give Us a Hendy
04. This Ain`t Looking Good…
05. Dude, That`s Scary!!!
06. Hey! Look This Way!
07. Auspicious Day
08. Who Are These Guys?
09. I`ve Always Been Me
10. It`s the Only Way I Know to Win


General
Format : Matroska
Format version : Version 4 / Version 2
File size : 984 MiB
Duration : 23 min 13 s
Overall bit rate : 5 922 kb/s
Encoded date : UTC 2021-07-28 20:15:18
Writing application : mkvmerge v55.0.0 ('Waiting For Space') 64-bit
Writing library : libebml v1.4.2 + libmatroska v1.6.4
Attachments : OpenSans-ExtraBold.ttf / OpenSans-Italic.ttf / OpenSans-Light.ttf / OpenSans-Regular.ttf / OpenSans-Semibold.ttf / MIAMA.OTF

Video
ID : 1
Format : AVC
Format/Info : Advanced Video Codec
Format profile : High@L4
Format settings : CABAC / 3 Ref Frames
Format settings, CABAC : Yes
Format settings, RefFrames : 3 frames
Codec ID : V_MPEG4/ISO/AVC
Duration : 23 min 13 s
Bit rate : 5 655 kb/s
Width : 1 920 pixels
Height : 1 080 pixels
Display aspect ratio : 16:9
Frame rate mode : Constant
Frame rate : 23.976 (24000/1001) FPS
Color space : YUV
Chroma subsampling : 4:2:0
Bit depth : 8 bits
Scan type : Progressive
Bits/(Pixel*Frame) : 0.114
Stream size : 940 MiB (95%)
Language : Japanese
Default : Yes
Forced : No
Color range : Limited
Matrix coefficients : BT.709

Audio
ID : 2
Format : AAC
Format/Info : Advanced Audio Codec
Format profile : LC
Codec ID : A_AAC-2
Duration : 23 min 13 s
Bit rate : 256 kb/s
Channel(s) : 2 channels
Channel positions : Front: L R
Sampling rate : 48.0 kHz
Frame rate : 46.875 FPS (1024 SPF)
Compression mode : Lossy
Stream size : 42.5 MiB (4%)
Language : Japanese
Default : Yes
Forced : No

Text #1
ID : 3
Format : ASS
Codec ID : S_TEXT/ASS
Codec ID/Info : Advanced Sub Station Alpha
Duration : 22 min 50 s
Bit rate : 145 b/s
Count of elements : 370
Compression mode : Lossless
Stream size : 24.3 KiB (0%)
Title : English
Language : English
Default : Yes
Forced : No

Text #2
ID : 4
Format : ASS
Codec ID : S_TEXT/ASS
Codec ID/Info : Advanced Sub Station Alpha
Duration : 22 min 50 s
Bit rate : 156 b/s
Count of elements : 375
Compression mode : Lossless
Stream size : 26.2 KiB (0%)
Title : Portuguese(Brazil)
Language : Portuguese
Default : No
Forced : No

Text #3
ID : 5
Format : ASS
Codec ID : S_TEXT/ASS
Codec ID/Info : Advanced Sub Station Alpha
Duration : 22 min 50 s
Bit rate : 159 b/s
Count of elements : 375
Compression mode : Lossless
Stream size : 26.6 KiB (0%)
Title : Spanish(Latin_America)
Language : Spanish
Default : No
Forced : No


Screenshots

Re-Main (2021) (1-10)

Re-Main (2021) (1-10)

Re-Main (2021) (1-10)


My publications | Rss Channel