Tags
Language
Tags

Dolls` Frontline (2022) (01)

Posted By: Lebedev30
Dolls` Frontline (2022) (01)

Dolls` Frontline (2022) (01)
WEBRip | MKV | 1920x1080 | H264@~6066 Kbps | 1x ~ 24mn | 1x ~1 Gb
日本語 AAC@256 Kbps | 2 channels | Subtitles: English, Español, Português
Genre: Animation


Description:
* Based on a mobile strategy role-playing game developed by China-based studio Mica Team.

In the fallout of nuclear war, the last of humanity survives with the help of life-like androids known as Dolls. Built to serve, some fight in wars as Tactical Dolls or T-Dolls. Now, an elite team comprised of T-Dolls are sent to face a new rogue threat, Sangvis Ferri. Leading them into battle is their new human commander, M4A1.






01. The Seed


General
Format : Matroska
Format version : Version 4 / Version 2
File size : 1.10 GiB
Duration : 24 min 47 s
Overall bit rate : 6 332 kb/s
Encoded date : UTC 2022-01-07 19:07:50
Writing application : mkvmerge v55.0.0 ('Waiting For Space') 64-bit
Writing library : libebml v1.4.2 + libmatroska v1.6.4
Attachments : OpenSans-ExtraBold.ttf / OpenSans-Italic.ttf / OpenSans-Light.ttf / OpenSans-Regular.ttf / OpenSans-Semibold.ttf / MIAMA.OTF

Video
ID : 1
Format : AVC
Format/Info : Advanced Video Codec
Format profile : High@L4
Format settings : CABAC / 3 Ref Frames
Format settings, CABAC : Yes
Format settings, RefFrames : 3 frames
Codec ID : V_MPEG4/ISO/AVC
Duration : 24 min 46 s
Bit rate : 6 066 kb/s
Width : 1 920 pixels
Height : 1 080 pixels
Display aspect ratio : 16:9
Frame rate mode : Constant
Frame rate : 23.976 (24000/1001) FPS
Color space : YUV
Chroma subsampling : 4:2:0
Bit depth : 8 bits
Scan type : Progressive
Bits/(Pixel*Frame) : 0.122
Stream size : 1.05 GiB (96%)
Language : Japanese
Default : Yes
Forced : No
Color range : Limited
Matrix coefficients : BT.709

Audio
ID : 2
Format : AAC
Format/Info : Advanced Audio Codec
Format profile : LC
Codec ID : A_AAC-2
Duration : 24 min 47 s
Bit rate : 256 kb/s
Channel(s) : 2 channels
Channel positions : Front: L R
Sampling rate : 48.0 kHz
Frame rate : 46.875 FPS (1024 SPF)
Compression mode : Lossy
Stream size : 45.4 MiB (4%)
Language : Japanese
Default : Yes
Forced : No

Text #1
ID : 3
Format : ASS
Codec ID : S_TEXT/ASS
Codec ID/Info : Advanced Sub Station Alpha
Duration : 24 min 32 s
Bit rate : 105 b/s
Count of elements : 362
Compression mode : Lossless
Stream size : 19.0 KiB (0%)
Title : English
Language : English
Default : Yes
Forced : No

Text #2
ID : 4
Format : ASS
Codec ID : S_TEXT/ASS
Codec ID/Info : Advanced Sub Station Alpha
Duration : 24 min 32 s
Bit rate : 107 b/s
Count of elements : 359
Compression mode : Lossless
Stream size : 19.4 KiB (0%)
Title : Portuguese(Brazil)
Language : Portuguese
Default : No
Forced : No

Text #3
ID : 5
Format : ASS
Codec ID : S_TEXT/ASS
Codec ID/Info : Advanced Sub Station Alpha
Duration : 24 min 34 s
Bit rate : 100 b/s
Count of elements : 330
Compression mode : Lossless
Stream size : 18.0 KiB (0%)
Title : Spanish(Latin_America)
Language : Spanish
Default : No
Forced : No


Screenshots

Dolls` Frontline (2022) (01)

Dolls` Frontline (2022) (01)

Dolls` Frontline (2022) (01)


My publications | Rss Channel