Tags
Language
Tags

Kenja no Deshi o Nanoru Kenja (2022) (01)

Posted By: Lebedev30
Kenja no Deshi o Nanoru Kenja (2022) (01)

Kenja no Deshi o Nanoru Kenja (2022) (01)
WEBRip | MKV | 1920x1080 | H264@5975 Kbps | 1x ~ 25mn | 1x ~1 Gb
日本語 AAC@256 Kbps | 2 channels | Subtitles: English, Español, Português
Genre: Animation, Adventure, Fantasy


Description:
* Based on a fantasy light novel series written by Ryuusen Hirotsugu and illustrated by Fujichoko.

Sakimori Kagami is a young man who's spent four years perfecting his avatar in the online VRMMORPG Arch Earth Online. Going by the name Dunbalf, he's known across the land of this virtual world. But one night before bed, Kagami uses an in-game vanity case that's about to expire—opting to create his ideal version of a female Dunbalf avatar for fun. Waking up, he's surprised to find that he's now in the body of the avatar he created the night before, and he'll have to work his way from the bottom up! So he's a young dude, playing an old dude, who is now playing a young girl—who is still that old dude.

Which brings us to Mira:
Mira is described as a beautiful summoner who identifies herself as Dunbalf's pupil. And if you've been keeping up, you'll remember that she is Dunbalf, which means her abilities are the same as his. Despite her youthful appearance, she speaks like an old man.






01. I Am Cute…


General
Format : Matroska
Format version : Version 4 / Version 2
File size : 1.04 GiB
Duration : 23 min 50 s
Overall bit rate : 6 241 kb/s
Encoded date : UTC 2022-01-11 15:35:02
Writing application : mkvmerge v55.0.0 ('Waiting For Space') 64-bit
Writing library : libebml v1.4.2 + libmatroska v1.6.4
Attachments : OpenSans-ExtraBold.ttf / OpenSans-Italic.ttf / OpenSans-Light.ttf / OpenSans-Regular.ttf / OpenSans-Semibold.ttf / MIAMA.OTF

Video
ID : 1
Format : AVC
Format/Info : Advanced Video Codec
Format profile : High@L4
Format settings : CABAC / 3 Ref Frames
Format settings, CABAC : Yes
Format settings, RefFrames : 3 frames
Codec ID : V_MPEG4/ISO/AVC
Duration : 23 min 50 s
Bit rate : 5 975 kb/s
Width : 1 920 pixels
Height : 1 080 pixels
Display aspect ratio : 16:9
Frame rate mode : Constant
Frame rate : 23.976 (24000/1001) FPS
Color space : YUV
Chroma subsampling : 4:2:0
Bit depth : 8 bits
Scan type : Progressive
Bits/(Pixel*Frame) : 0.120
Stream size : 1 019 MiB (96%)
Language : Japanese
Default : Yes
Forced : No
Color range : Limited
Matrix coefficients : BT.709

Audio
ID : 2
Format : AAC
Format/Info : Advanced Audio Codec
Format profile : LC
Codec ID : A_AAC-2
Duration : 23 min 50 s
Bit rate : 256 kb/s
Channel(s) : 2 channels
Channel positions : Front: L R
Sampling rate : 48.0 kHz
Frame rate : 46.875 FPS (1024 SPF)
Compression mode : Lossy
Stream size : 43.6 MiB (4%)
Language : Japanese
Default : Yes
Forced : No

Text #1
ID : 3
Format : ASS
Codec ID : S_TEXT/ASS
Codec ID/Info : Advanced Sub Station Alpha
Duration : 21 min 59 s
Bit rate : 66 b/s
Count of elements : 182
Compression mode : Lossless
Stream size : 10.7 KiB (0%)
Title : English
Language : English
Default : Yes
Forced : No

Text #2
ID : 4
Format : ASS
Codec ID : S_TEXT/ASS
Codec ID/Info : Advanced Sub Station Alpha
Duration : 21 min 59 s
Bit rate : 70 b/s
Count of elements : 181
Compression mode : Lossless
Stream size : 11.3 KiB (0%)
Title : Portuguese(Brazil)
Language : Portuguese
Default : No
Forced : No

Text #3
ID : 5
Format : ASS
Codec ID : S_TEXT/ASS
Codec ID/Info : Advanced Sub Station Alpha
Duration : 21 min 59 s
Bit rate : 66 b/s
Count of elements : 176
Compression mode : Lossless
Stream size : 10.6 KiB (0%)
Title : Spanish(Latin_America)
Language : Spanish
Default : No
Forced : No


Screenshots

Kenja no Deshi o Nanoru Kenja (2022) (01)

Kenja no Deshi o Nanoru Kenja (2022) (01)

Kenja no Deshi o Nanoru Kenja (2022) (01)


My publications | Rss Channel