Tags
Language
Tags

Mahouka Koukou no Rettousei: Tsuioku Hen (2021)

Posted By: Lebedev30
Mahouka Koukou no Rettousei: Tsuioku Hen (2021)

Mahouka Koukou no Rettousei: Tsuioku Hen (2021)
WEBRip | MKV | 1920x1080 | H264@8000 Kbps | 1x ~ 71mn | 1x ~4 Gb
日本語 AAC@128 Kbps | 2 channels | Subtitles: English, Español, Português, Русский, Français
Genre: Animation, Action, Fantasy, Sci-Fi


Description:
* Based on the light novel's eighth volume by the same name written by Satou Tsutomu and illustrated by Ishida Kana.

Looking at Miyuki and Tatsuya now, it might be hard to imagine them as anything other than loving siblings. But it wasn't always this way…

Three years ago, Miyuki was always uncomfortable around her older brother. The rest of their family treated him no better than a lowly servant, even though he was the perfect Guardian, watching over Miyuki while she lived a normal middle school life. But what really bothered her was that he never showed any emotions or thoughts of his own.

However, when danger comes calling during a fateful trip to Okinawa, their relationship as brother and sister will change forever…






01. TV Special


General
Format : Matroska
Format version : Version 4 / Version 2
File size : 4.03 GiB
Duration : 1 h 11 min
Overall bit rate : 8 134 kb/s
Encoded date : UTC 2021-12-31 23:35:52
Writing application : mkvmerge v55.0.0 ('Waiting For Space') 64-bit
Writing library : libebml v1.4.2 + libmatroska v1.6.4
Attachments : arialbd.ttf / arialbi.ttf / Arial_0.ttf / ariblk_0.TTF / calibri.ttf / comicbd.ttf / comic_0.ttf / georgiab.ttf / georgiaz.ttf / georgia_0.ttf / impact_0.ttf / Tahoma_0.ttf / times_0.ttf / trebuc_0.ttf / verdana_0.ttf / AdobeArabic-Bold.otf / AdobeArabic-BoldItalic.otf / AdobeArabic-Italic.otf / AdobeArabic-Regular.otf

Video
ID : 1
Format : AVC
Format/Info : Advanced Video Codec
Format profile : High@L4
Format settings : CABAC / 4 Ref Frames
Format settings, CABAC : Yes
Format settings, RefFrames : 4 frames
Format settings, GOP : N=1
Codec ID : V_MPEG4/ISO/AVC
Duration : 1 h 11 min
Bit rate : 8 000 kb/s
Width : 1 920 pixels
Height : 1 080 pixels
Display aspect ratio : 16:9
Frame rate mode : Constant
Frame rate : 23.976 (23976/1000) FPS
Color space : YUV
Chroma subsampling : 4:2:0
Bit depth : 8 bits
Scan type : Progressive
Bits/(Pixel*Frame) : 0.161
Stream size : 3.96 GiB (98%)
Writing library : x264 core 142
Encoding settings : cabac=1 / ref=4 / deblock=1:1:1 / analyse=0x3:0x113 / me=umh / subme=8 / psy=1 / psy_rd=0.40:0.00 / mixed_ref=1 / me_range=16 / chroma_me=1 / trellis=1 / 8x8dct=1 / cqm=0 / deadzone=21,11 / fast_pskip=1 / chroma_qp_offset=-2 / threads=12 / lookahead_threads=2 / sliced_threads=0 / nr=0 / decimate=1 / interlaced=0 / bluray_compat=0 / constrained_intra=0 / bframes=0 / weightp=2 / keyint=96 / keyint_min=48 / scenecut=40 / intra_refresh=0 / rc_lookahead=48 / rc=2pass / mbtree=1 / bitrate=8000 / ratetol=1.0 / qcomp=0.60 / qpmin=0 / qpmax=69 / qpstep=4 / cplxblur=20.0 / qblur=0.5 / vbv_maxrate=12000 / vbv_bufsize=18000 / nal_hrd=none / filler=0 / ip_ratio=1.40 / aq=1:0.60
Language : Japanese
Default : Yes
Forced : No

Audio
ID : 2
Format : AAC
Format/Info : Advanced Audio Codec
Format profile : LC
Codec ID : A_AAC-2
Duration : 1 h 11 min
Bit rate : 128 kb/s
Channel(s) : 2 channels
Channel positions : Front: L R
Sampling rate : 44.1 kHz
Frame rate : 43.066 FPS (1024 SPF)
Compression mode : Lossy
Stream size : 65.0 MiB (2%)
Language : Japanese
Default : Yes
Forced : No

Text #1
ID : 3
Format : ASS
Codec ID : S_TEXT/ASS
Codec ID/Info : Advanced Sub Station Alpha
Duration : 1 h 10 min
Bit rate : 122 b/s
Count of elements : 885
Compression mode : Lossless
Stream size : 63.6 KiB (0%)
Title : English
Language : English
Default : Yes
Forced : No

Text #2
ID : 4
Format : ASS
Codec ID : S_TEXT/ASS
Codec ID/Info : Advanced Sub Station Alpha
Duration : 1 h 10 min
Bit rate : 111 b/s
Count of elements : 881
Compression mode : Lossless
Stream size : 57.8 KiB (0%)
Title : Portuguese(Brazil)
Language : Portuguese
Default : No
Forced : No

Text #3
ID : 5
Format : ASS
Codec ID : S_TEXT/ASS
Codec ID/Info : Advanced Sub Station Alpha
Duration : 1 h 10 min
Bit rate : 111 b/s
Count of elements : 884
Compression mode : Lossless
Stream size : 57.9 KiB (0%)
Title : Spanish(Latin_America)
Language : Spanish
Default : No
Forced : No

Text #4
ID : 6
Format : ASS
Codec ID : S_TEXT/ASS
Codec ID/Info : Advanced Sub Station Alpha
Duration : 1 h 10 min
Bit rate : 111 b/s
Count of elements : 884
Compression mode : Lossless
Stream size : 57.9 KiB (0%)
Title : Spanish
Language : Spanish
Default : No
Forced : No

Text #5
ID : 7
Format : ASS
Codec ID : S_TEXT/ASS
Codec ID/Info : Advanced Sub Station Alpha
Duration : 1 h 10 min
Bit rate : 113 b/s
Count of elements : 890
Compression mode : Lossless
Stream size : 59.1 KiB (0%)
Title : French
Language : French
Default : No
Forced : No

Text #6
ID : 8
Format : ASS
Codec ID : S_TEXT/ASS
Codec ID/Info : Advanced Sub Station Alpha
Duration : 1 h 10 min
Bit rate : 168 b/s
Count of elements : 910
Compression mode : Lossless
Stream size : 87.5 KiB (0%)
Title : Russian
Language : Russian
Default : No
Forced : No


Screenshots

Mahouka Koukou no Rettousei: Tsuioku Hen (2021)

Mahouka Koukou no Rettousei: Tsuioku Hen (2021)

Mahouka Koukou no Rettousei: Tsuioku Hen (2021)


My publications | Rss Channel