Tags
Language
Tags

Appleseed (1988)

Posted By: Lebedev30
Appleseed (1988)

Appleseed (1988)
BDRip | MKV | 1440x1080 | H264@~6500 Kbps | 1x ~ 67mn | 1x ~3.4 Gb
Japanese FLAC@740 Kbps | 2 channels | Subtitles: None
Genre: action, cyborg, gunfights, human enhancement, law and order, mecha, power suit, science fiction, seinen


Description:
In the futuristic metropolis of Olympus a terrorist attack takes place. The ESWAT (Extra Special Weapons And Tactics) team, including Deunan Knute and Briareos Hecatonchires, is sent in to deal with the threat. They succeed in averting the immediate danger, but one of the terrorists manages to escape.

The attack was part of a terrorist plot to take over Gaia — the central AI running Olympus. This involves a disillusioned ESWAT officer and the terrorist who got away, and Hitomi, Deunan's bioroid friend who is used as a pawn to gain access to Gaia.






01. OVA


General
Format : Matroska
Format version : Version 4 / Version 2
File size : 3.41 GiB
Duration : 1 h 7 min
Overall bit rate mode : Variable
Overall bit rate : 7 239 kb/s
Encoded date : UTC 2022-02-19 08:26:09
Writing application : mkvmerge v32.0.0 ('Astral Progressions') 64-bit
Writing library : libebml v1.3.7 + libmatroska v1.5.0

Video
ID : 2
Format : AVC
Format/Info : Advanced Video Codec
Format profile : High@L5
Format settings : CABAC / 16 Ref Frames
Format settings, CABAC : Yes
Format settings, RefFrames : 16 frames
Codec ID : V_MPEG4/ISO/AVC
Duration : 1 h 7 min
Bit rate : 6 500 kb/s
Width : 1 440 pixels
Height : 1 080 pixels
Display aspect ratio : 4:3
Frame rate mode : Constant
Frame rate : 23.976 (24000/1001) FPS
Color space : YUV
Chroma subsampling : 4:2:0
Bit depth : 8 bits
Scan type : Progressive
Bits/(Pixel*Frame) : 0.174
Stream size : 3.06 GiB (90%)
Writing library : x264 core 157 r2969 d4099dd
Encoding settings : cabac=1 / ref=16 / deblock=1:0:0 / analyse=0x3:0x133 / me=tesa / subme=11 / psy=1 / psy_rd=1.00:0.00 / mixed_ref=1 / me_range=24 / chroma_me=1 / trellis=2 / 8x8dct=1 / cqm=0 / deadzone=21,11 / fast_pskip=0 / chroma_qp_offset=-2 / threads=12 / lookahead_threads=3 / sliced_threads=0 / nr=0 / decimate=1 / interlaced=0 / bluray_compat=0 / constrained_intra=0 / bframes=16 / b_pyramid=2 / b_adapt=2 / b_bias=0 / direct=3 / weightb=1 / open_gop=0 / weightp=2 / keyint=240 / keyint_min=23 / scenecut=40 / intra_refresh=0 / rc_lookahead=60 / rc=2pass / mbtree=1 / bitrate=6500 / ratetol=1.0 / qcomp=0.60 / qpmin=0 / qpmax=69 / qpstep=4 / cplxblur=20.0 / qblur=0.5 / ip_ratio=1.40 / aq=1:1.00
Default : Yes
Forced : No

Audio
ID : 1
Format : FLAC
Format/Info : Free Lossless Audio Codec
Codec ID : A_FLAC
Duration : 1 h 7 min
Bit rate mode : Variable
Bit rate : 740 kb/s
Channel(s) : 2 channels
Sampling rate : 48.0 kHz
Frame rate : 11.719 FPS (4096 SPF)
Bit depth : 16 bits
Stream size : 357 MiB (10%)
Writing library : libFLAC 1.2.1 (UTC 2007-09-17)
Default : Yes
Forced : No


Screenshots

Appleseed (1988)

Appleseed (1988)

Appleseed (1988)


My publications | Rss Channel