Tags
Language
Tags
December 2022
Su Mo Tu We Th Fr Sa
27 28 29 30 1 2 3
4 5 6 7 8 9 10
11 12 13 14 15 16 17
18 19 20 21 22 23 24
25 26 27 28 29 30 31

Mouretsu Pirates: Abyss of Hyperspace - Akuu no Shin`en (2014)

Posted By: Lebedev30
Mouretsu Pirates: Abyss of Hyperspace - Akuu no Shin`en (2014)

Mouretsu Pirates: Abyss of Hyperspace - Akuu no Shin`en (2014)
BDRip | MKV | 1920x1080 | H264@~10000 Kbps | 1x ~ 92mn | 1x ~7.3 Gb
Japanese FLAC@1399 Kbps | 2 channels | Subtitles: None
Genre: action, adventure, coming of age, science fiction, shounen, space travel


Description:
Katou Marika, a third year student at Hakuho Girls' Academy, is a legitimate space pirate with a Letter of Marque. Between her studies, leading her school's space yacht club, working part time at Cafe Lamp, and being the captain of the space pirate ship Bentenmaru, Marika's days are very busy. One day, Marika gets a job to rob a high-class passenger ship, and she discovers that on the passenger list is Mugen Kanata, a boy who owns a galaxy pass. Thus, an adventure featuring a hyperspace race between pirates and one young boy begins.






01. Complete Movie


General
Format : Matroska
Format version : Version 4 / Version 2
File size : 7.40 GiB
Duration : 1 h 32 min
Overall bit rate mode : Variable
Overall bit rate : 11.4 Mb/s
Encoded date : UTC 2022-06-13 17:46:33
Writing application : mkvmerge v32.0.0 ('Astral Progressions') 64-bit
Writing library : libebml v1.3.7 + libmatroska v1.5.0

Video
ID : 1
Format : AVC
Format/Info : Advanced Video Codec
Format profile : High@L5.1
Format settings : CABAC / 16 Ref Frames
Format settings, CABAC : Yes
Format settings, RefFrames : 16 frames
Codec ID : V_MPEG4/ISO/AVC
Duration : 1 h 32 min
Bit rate : 10 000 kb/s
Width : 1 920 pixels
Height : 1 080 pixels
Display aspect ratio : 16:9
Frame rate mode : Constant
Frame rate : 23.976 (24000/1001) FPS
Color space : YUV
Chroma subsampling : 4:2:0
Bit depth : 8 bits
Scan type : Progressive
Bits/(Pixel*Frame) : 0.201
Stream size : 6.49 GiB (88%)
Writing library : x264 core 157 r2969 d4099dd
Encoding settings : cabac=1 / ref=16 / deblock=1:0:0 / analyse=0x3:0x133 / me=tesa / subme=11 / psy=1 / psy_rd=1.00:0.00 / mixed_ref=1 / me_range=24 / chroma_me=1 / trellis=2 / 8x8dct=1 / cqm=0 / deadzone=21,11 / fast_pskip=0 / chroma_qp_offset=-2 / threads=12 / lookahead_threads=3 / sliced_threads=0 / nr=0 / decimate=1 / interlaced=0 / bluray_compat=0 / constrained_intra=0 / bframes=16 / b_pyramid=2 / b_adapt=2 / b_bias=0 / direct=3 / weightb=1 / open_gop=0 / weightp=2 / keyint=240 / keyint_min=23 / scenecut=40 / intra_refresh=0 / rc_lookahead=60 / rc=2pass / mbtree=1 / bitrate=10000 / ratetol=1.0 / qcomp=0.60 / qpmin=0 / qpmax=69 / qpstep=4 / cplxblur=20.0 / qblur=0.5 / ip_ratio=1.40 / aq=1:1.00
Default : Yes
Forced : No

Audio
ID : 2
Format : FLAC
Format/Info : Free Lossless Audio Codec
Codec ID : A_FLAC
Duration : 1 h 32 min
Bit rate mode : Variable
Bit rate : 1 399 kb/s
Channel(s) : 2 channels
Sampling rate : 48.0 kHz
Frame rate : 11.719 FPS (4096 SPF)
Bit depth : 24 bits
Stream size : 929 MiB (12%)
Writing library : libFLAC 1.2.1 (UTC 2007-09-17)
Default : Yes
Forced : No

Menu
00:00:00.000 : en:Chapter 01
00:05:22.781 : en:Chapter 02
00:15:16.332 : en:Chapter 03
00:22:19.213 : en:Chapter 04
00:35:53.610 : en:Chapter 05
00:46:02.843 : en:Chapter 06
00:59:46.583 : en:Chapter 07
01:14:24.960 : en:Chapter 08
01:26:54.209 : en:Chapter 09


Screenshots

Mouretsu Pirates: 			  			 	   			 	  		  		  		  		  		  		  		  		   			 	   		  		  	 			   		  	   		  		  		 		   	 			   		 		   		 	 	  	 			   		 		   		  					 Abyss of Hyperspace - Akuu no Shin`en (2014)

Mouretsu Pirates: Abyss of Hyperspace - Akuu no Shin`en (2014)

Mouretsu Pirates: Abyss of Hyperspace - Akuu no Shin`en (2014)


My publications | Rss Channel