Tags
Language
Tags
November 2022
Su Mo Tu We Th Fr Sa
30 31 1 2 3 4 5
6 7 8 9 10 11 12
13 14 15 16 17 18 19
20 21 22 23 24 25 26
27 28 29 30 1 2 3

Saki (2009), (2012), (2014)

Posted By: Lebedev30
Saki (2009), (2012), (2014)

Saki (2009), (2012), (2014)
BDRip | MKV | 1912x1064 | H264@~10000 Kbps | 25,16,13x ~ 24mn | 25,16,13x ~1.8 Gb
Japanese FLAC@673 Kbps | 2 channels | Subtitles: None
Genre: comedy, high school, school clubs, school life, seinen, sports


Description:
* Series based on a manga story authored by Kobayashi Ritz.

Miyanaga Saki is a high school freshman who does not like mahjong. Ever since she was a child, she would lose her New Year's gift money during her family's mahjong game. If she won, her parents would be upset, and if she lost, well, she lost. As a result, she has learned to play in such a way that her score always remains plus/minus zero: Not good enough to win, but not bad enough to lose. When we meet her, she is being dragged to her school's mahjong club by an old friend. How will a girl who hates mahjong, yet has become adept at the game as a result of her upbringing, cope in this environment?










01. Meeting
02. Contest
03. Confrontation
04. Make Fun of
05. Training Camp
06. The Curtain Rises
07. Tradition
08. Last Night
09. Enlightenment
10. Beginner
11. Tease
12. Awaken
13. Fever
14. Existence
15. Demon
16. Conspiracy
17. Nightmare
18. Connection
19. Friend
20. Sisters
21. Recollection
22. Promise
23. Seriousness
24. Summer Festival
25. Nationals
01. Chance Meeting
02. Beginning
03. Contact
04. The Nationals
05. Veteran
06. Recovery
07. Conviction
08. Training
09. Best
10. Dealer`s Streak
11. Determination
12. Promise
01. To Tokyo
02. Support
03. Start
04. East Wind
05. Gods and Demons
06. Withering
07. Attention
08. Fortress
09. Sortie
10. Friends
11. Threat
12. Truth
13. Old Friends


General
Format : Matroska
Format version : Version 4 / Version 2
File size : 1.78 GiB
Duration : 23 min 54 s
Overall bit rate mode : Variable
Overall bit rate : 10.7 Mb/s
Encoded date : UTC 2022-05-29 14:35:34
Writing application : mkvmerge v32.0.0 ('Astral Progressions') 64-bit
Writing library : libebml v1.3.7 + libmatroska v1.5.0

Video
ID : 2
Format : AVC
Format/Info : Advanced Video Codec
Format profile : High@L5.1
Format settings : CABAC / 16 Ref Frames
Format settings, CABAC : Yes
Format settings, RefFrames : 16 frames
Codec ID : V_MPEG4/ISO/AVC
Duration : 23 min 54 s
Bit rate : 10 000 kb/s
Width : 1 912 pixels
Height : 1 064 pixels
Display aspect ratio : 16:9
Frame rate mode : Constant
Frame rate : 23.976 (24000/1001) FPS
Color space : YUV
Chroma subsampling : 4:2:0
Bit depth : 8 bits
Scan type : Progressive
Bits/(Pixel*Frame) : 0.205
Stream size : 1.67 GiB (94%)
Writing library : x264 core 157 r2969 d4099dd
Encoding settings : cabac=1 / ref=16 / deblock=1:0:0 / analyse=0x3:0x133 / me=tesa / subme=11 / psy=1 / psy_rd=1.00:0.00 / mixed_ref=1 / me_range=24 / chroma_me=1 / trellis=2 / 8x8dct=1 / cqm=0 / deadzone=21,11 / fast_pskip=0 / chroma_qp_offset=-2 / threads=12 / lookahead_threads=3 / sliced_threads=0 / nr=0 / decimate=1 / interlaced=0 / bluray_compat=0 / constrained_intra=0 / bframes=16 / b_pyramid=2 / b_adapt=2 / b_bias=0 / direct=3 / weightb=1 / open_gop=0 / weightp=2 / keyint=240 / keyint_min=23 / scenecut=40 / intra_refresh=0 / rc_lookahead=60 / rc=2pass / mbtree=1 / bitrate=10000 / ratetol=1.0 / qcomp=0.60 / qpmin=0 / qpmax=69 / qpstep=4 / cplxblur=20.0 / qblur=0.5 / ip_ratio=1.40 / aq=1:1.00
Default : Yes
Forced : No

Audio
ID : 1
Format : FLAC
Format/Info : Free Lossless Audio Codec
Codec ID : A_FLAC
Duration : 23 min 54 s
Bit rate mode : Variable
Bit rate : 673 kb/s
Channel(s) : 2 channels
Sampling rate : 48.0 kHz
Frame rate : 11.719 FPS (4096 SPF)
Bit depth : 16 bits
Stream size : 115 MiB (6%)
Writing library : libFLAC 1.2.1 (UTC 2007-09-17)
Default : Yes
Forced : No

Menu
00:00:00.000 : :Chapter 01
00:01:43.036 : :Chapter 02
00:12:47.900 : :Chapter 03
00:23:37.883 : :Chapter 04


Screenshots

Saki (2009), (2012), (2014)

Saki (2009), (2012), (2014)

Saki (2009), (2012), (2014)


My publications | Rss Channel