Tags
Language
Tags
June 2024
Su Mo Tu We Th Fr Sa
26 27 28 29 30 31 1
2 3 4 5 6 7 8
9 10 11 12 13 14 15
16 17 18 19 20 21 22
23 24 25 26 27 28 29
30 1 2 3 4 5 6

Action Heroine Cheer Fruits - TV SP - " Action Heroine Cheer Fruits - 05 (BD 1920x1080 x 264 Flac mkv" yEnc

Posted By: Otaku
Action Heroine Cheer Fruits - TV  SP  - " Action Heroine Cheer Fruits - 05 (BD 1920x1080 x 264 Flac mkv" yEnc

Action Heroine Cheer Fruits - TV SP - " Action Heroine Cheer Fruits - 05 (BD 1920x1080 x 264 Flac mkv" yEnc
MKV | 1920x1080 | 日本語 | H264 @ 5108 kbps | FLAC @ 637.143 kbps | 24 min 12 s | 995 MiB



[Moozzi2] Action Heroine Cheer Fruits - 05 (BD 1920x1080 x.264 Flac).mkv (994.9 MB)



General
Unique ID : 196298664181674158428287183851174734740 (0x93ADBF5EB8724DAAB54C0AD8166FAB94)
Complete name : ./[Moozzi2] Action Heroine Cheer Fruits - 05 (BD 1920x1080 x.264 Flac).mkv
Format : Matroska
Format version : Version 4
File size : 995 MiB
Duration : 24 min 12 s
Overall bit rate mode : Variable
Overall bit rate : 5 748 kb/s
Encoded date : UTC 2018-02-26 07:19:41
Writing application : mkvmerge v9.2.0 ('Photograph') 64bit
Writing library : libebml v1.3.3 + libmatroska v1.4.4

Video
ID : 1
Format : AVC
Format/Info : Advanced Video Codec
Format profile : High@L5
Format settings : CABAC / 5 Ref Frames
Format settings, CABAC : Yes
Format settings, Reference frames : 5 frames
Codec ID : V_MPEG4/ISO/AVC
Duration : 24 min 12 s
Bit rate : 5 109 kb/s
Width : 1 920 pixels
Height : 1 080 pixels
Display aspect ratio : 16:9
Frame rate mode : Constant
Frame rate : 23.976 (24000/1001) FPS
Color space : YUV
Chroma subsampling : 4:2:0
Bit depth : 8 bits
Scan type : Progressive
Bits/(Pixel*Frame) : 0.103
Stream size : 884 MiB (89%)
Writing library : x264 core 152 r2851 ba24899
Encoding settings : cabac=1 / ref=5 / deblock=1:1:1 / analyse=0x3:0x113 / me=umh / subme=9 / psy=1 / psy_rd=1.00:0.00 / mixed_ref=1 / me_range=32 / chroma_me=1 / trellis=1 / 8x8dct=1 / cqm=0 / deadzone=21,11 / fast_pskip=0 / chroma_qp_offset=-2 / threads=24 / lookahead_threads=2 / sliced_threads=0 / nr=0 / decimate=1 / interlaced=0 / bluray_compat=0 / stitchable=1 / constrained_intra=0 / bframes=3 / b_pyramid=2 / b_adapt=2 / b_bias=0 / direct=1 / weightb=1 / open_gop=0 / weightp=1 / keyint=240 / keyint_min=23 / scenecut=40 / intra_refresh=0 / rc_lookahead=40 / rc=crf / mbtree=1 / crf=16.0 / qcomp=0.60 / qpmin=0 / qpmax=69 / qpstep=4 / ip_ratio=1.40 / aq=1:1.00
Language : Japanese
Default : Yes
Forced : No

Audio
ID : 2
Format : FLAC
Format/Info : Free Lossless Audio Codec
Codec ID : A_FLAC
Duration : 24 min 12 s
Bit rate mode : Variable
Bit rate : 637 kb/s
Channel(s) : 2 channels
Channel layout : L R
Sampling rate : 48.0 kHz
Frame rate : 11.719 FPS (4096 SPF)
Bit depth : 16 bits
Compression mode : Lossless
Stream size : 110 MiB (11%)
Writing library : libFLAC 1.3.2 (UTC 2017-01-01)
Language : Japanese
Default : Yes
Forced : No





Action Heroine Cheer Fruits - TV  SP  - " Action Heroine Cheer Fruits - 05 (BD 1920x1080 x 264 Flac mkv" yEnc


Action Heroine Cheer Fruits - TV  SP  - " Action Heroine Cheer Fruits - 05 (BD 1920x1080 x 264 Flac mkv" yEnc


Action Heroine Cheer Fruits - TV  SP  - " Action Heroine Cheer Fruits - 05 (BD 1920x1080 x 264 Flac mkv" yEnc


Action Heroine Cheer Fruits - TV  SP  - " Action Heroine Cheer Fruits - 05 (BD 1920x1080 x 264 Flac mkv" yEnc