Tags
Language
Tags
July 2024
Su Mo Tu We Th Fr Sa
30 1 2 3 4 5 6
7 8 9 10 11 12 13
14 15 16 17 18 19 20
21 22 23 24 25 26 27
28 29 30 31 1 2 3

Bakusou Kyoudai Let's & Go!! MAX - 49 (BD 1440x1080 x 264 Flac mkv" yEnc

Posted By: Otaku
Bakusou Kyoudai Let's & Go!! MAX - 49 (BD 1440x1080 x 264 Flac mkv" yEnc

Bakusou Kyoudai Let's & Go!! MAX - 49 (BD 1440x1080 x 264 Flac mkv" yEnc
MKV | 1440x1080 | 日本語 | H264 @ 10000 kbps | FLAC @ 721.553 kbps | 23 min 26 s | 1.76 GiB



[Moozzi2] Bakusou Kyoudai Let's & Go!! MAX - 49 (BD 1440x1080 x.264 Flac).mkv (1.8 GB)



General
Unique ID : 251169359609278013876166989962030503427 (0xBCF57586299A467CACD79303EE325603)
Complete name : ./[Moozzi2] Bakusou Kyoudai Let's & Go!! MAX - 49 (BD 1440x1080 x.264 Flac).mkv
Format : Matroska
Format version : Version 4
File size : 1.76 GiB
Duration : 23 min 26 s
Overall bit rate mode : Variable
Overall bit rate : 10.7 Mb/s
Encoded date : UTC 2018-07-10 05:55:04
Writing application : mkvmerge v9.2.0 ('Photograph') 64bit
Writing library : libebml v1.3.3 + libmatroska v1.4.4

Video
ID : 1
Format : AVC
Format/Info : Advanced Video Codec
Format profile : High@L4
Format settings : CABAC / 4 Ref Frames
Format settings, CABAC : Yes
Format settings, Reference frames : 4 frames
Codec ID : V_MPEG4/ISO/AVC
Duration : 23 min 26 s
Bit rate : 10 000 kb/s
Width : 1 440 pixels
Height : 1 080 pixels
Display aspect ratio : 4:3
Frame rate mode : Constant
Frame rate : 23.976 (24000/1001) FPS
Color space : YUV
Chroma subsampling : 4:2:0
Bit depth : 8 bits
Scan type : Progressive
Bits/(Pixel*Frame) : 0.268
Stream size : 1.64 GiB (93%)
Writing library : x264 core 155 r2901 7d0ff22
Encoding settings : cabac=1 / ref=4 / deblock=1:-1:-1 / analyse=0x3:0x113 / me=umh / subme=8 / psy=1 / psy_rd=1.00:0.00 / mixed_ref=1 / me_range=24 / chroma_me=1 / trellis=0 / 8x8dct=1 / cqm=0 / deadzone=21,11 / fast_pskip=0 / chroma_qp_offset=-2 / threads=24 / lookahead_threads=4 / sliced_threads=0 / nr=0 / decimate=1 / interlaced=0 / bluray_compat=0 / stitchable=1 / constrained_intra=0 / bframes=3 / b_pyramid=2 / b_adapt=2 / b_bias=0 / direct=1 / weightb=1 / open_gop=0 / weightp=2 / keyint=240 / keyint_min=23 / scenecut=40 / intra_refresh=0 / rc_lookahead=40 / rc=2pass / mbtree=1 / bitrate=10000 / ratetol=1.0 / qcomp=0.60 / qpmin=0 / qpmax=69 / qpstep=4 / cplxblur=20.0 / qblur=0.5 / ip_ratio=1.40 / aq=1:1.00
Language : Japanese
Default : Yes
Forced : No

Audio
ID : 2
Format : FLAC
Format/Info : Free Lossless Audio Codec
Codec ID : A_FLAC
Duration : 23 min 26 s
Bit rate mode : Variable
Bit rate : 722 kb/s
Channel(s) : 2 channels
Channel layout : L R
Sampling rate : 48.0 kHz
Frame rate : 11.719 FPS (4096 SPF)
Bit depth : 16 bits
Compression mode : Lossless
Stream size : 121 MiB (7%)
Writing library : libFLAC 1.3.2 (UTC 2017-01-01)
Language : Japanese
Default : Yes
Forced : No





Bakusou Kyoudai Let's & Go!! MAX - 49 (BD 1440x1080 x 264 Flac mkv" yEnc


Bakusou Kyoudai Let's & Go!! MAX - 49 (BD 1440x1080 x 264 Flac mkv" yEnc


Bakusou Kyoudai Let's & Go!! MAX - 49 (BD 1440x1080 x 264 Flac mkv" yEnc


Bakusou Kyoudai Let's & Go!! MAX - 49 (BD 1440x1080 x 264 Flac mkv" yEnc