Tags
Language
Tags
May 2024
Su Mo Tu We Th Fr Sa
28 29 30 1 2 3 4
5 6 7 8 9 10 11
12 13 14 15 16 17 18
19 20 21 22 23 24 25
26 27 28 29 30 31 1

Blue Exorcist - 39

Posted By: Otaku
Blue Exorcist - 39

Blue Exorcist - 39
HDTV | MKV | 1920x1080 | 日本語 | H264 @ 7364 kbps | AAC @ 252.373 kbps | 23 min 59 s | 1.28 GiB
Subtitles: English



[Koten_Gars] Blue Exorcist - 39 [HDTV][Hi10][1080p][AAC] [0262BCE0].mkv (1.3 GB)



General
Unique ID : 3575365695797467945591382781891262930 (0x2B09723822ED4DFDC65256F1BED39D2)
Complete name : ./[Koten_Gars] Blue Exorcist - 39 [HDTV][Hi10][1080p][AAC] [0262BCE0].mkv
Format : Matroska
Format version : Version 4
File size : 1.28 GiB
Duration : 23 min 59 s
Overall bit rate : 7 630 kb/s
Encoded date : UTC 2024-02-21 01:58:41
Writing application : mkvmerge v82.0 ('I'm The President') 64-bit
Writing library : libebml v1.4.5 + libmatroska v1.7.1
Attachments : Angie-Bold.ttf / Angie-BoldItalic.ttf / ArnoPro-Regular.1.otf / BrushStrokeFast.otf / Handlee-Regular.1.ttf / PaperCuts.ttf / Ragnar.ttf / Roboto-Light.ttf / Schroeder-Condensed Bold.ttf

Video
ID : 1
Format : AVC
Format/Info : Advanced Video Codec
Format profile : High 10@L4
Format settings : CABAC / 4 Ref Frames
Format settings, CABAC : Yes
Format settings, Reference frames : 4 frames
Codec ID : V_MPEG4/ISO/AVC
Duration : 23 min 59 s
Bit rate : 7 364 kb/s
Width : 1 920 pixels
Height : 1 080 pixels
Display aspect ratio : 16:9
Frame rate mode : Constant
Frame rate : 23.976 (24000/1001) FPS
Color space : YUV
Chroma subsampling : 4:2:0
Bit depth : 10 bits
Scan type : Progressive
Bits/(Pixel*Frame) : 0.148
Stream size : 1.23 GiB (97%)
Title : JP.HDTV 10-bit 1080p
Writing library : x264 core 164 r3172+8 d0a13eb [Mod by Patman]
Encoding settings : cabac=1 / ref=4 / deblock=1:0:0 / analyse=0x1:0x111 / me=hex / subme=9 / psy=1 / psy_rd=1.40:0.60 / mixed_ref=1 / me_range=16 / chroma_me=1 / trellis=1 / 8x8dct=0 / cqm=0 / deadzone=17,11 / fast_pskip=0 / chroma_qp_offset=-4 / threads=34 / lookahead_threads=3 / sliced_threads=0 / nr=0 / decimate=0 / interlaced=0 / bluray_compat=0 / constrained_intra=0 / bframes=5 / b_pyramid=2 / b_adapt=2 / b_bias=0 / direct=1 / weightb=1 / open_gop=0 / weightp=2 / keyint=240 / keyint_min=23 / scenecut=40 / intra_refresh=0 / rc_lookahead=80 / rc=crf / mbtree=1 / crf=16.0 / qcomp=0.60 / qpmin=0 / qpmax=81 / qpstep=4 / ip_ratio=1.40 / aq=3:0.70:1.00
Language : Japanese
Default : Yes
Forced : No
Color range : Limited
Color primaries : BT.709
Transfer characteristics : BT.709
Matrix coefficients : BT.709

Audio
ID : 2
Format : AAC LC
Format/Info : Advanced Audio Codec Low Complexity
Codec ID : A_AAC-2
Duration : 23 min 59 s
Bit rate : 252 kb/s
Channel(s) : 2 channels
Channel layout : L R
Sampling rate : 48.0 kHz
Frame rate : 46.875 FPS (1024 SPF)
Compression mode : Lossy
Delay relative to video : 10 ms
Stream size : 43.3 MiB (3%)
Title : Japanese 2.0ch AAC
Language : Japanese
Default : No
Forced : No

Text
ID : 3
Format : ASS
Codec ID : S_TEXT/ASS
Codec ID/Info : Advanced Sub Station Alpha
Duration : 23 min 49 s
Bit rate : 4 049 b/s
Frame rate : 3.083 FPS
Count of elements : 4406
Compression mode : Lossless
Stream size : 706 KiB (0%)
Title : English Subs (Tenrai-Sensei)
Language : English
Default : Yes
Forced : No

Menu
00:00:00.000 : :OP
00:01:30.007 : en:Episode
00:22:14.000 : en:ED
00:23:45.000 : en:PV





Blue Exorcist - 39


Blue Exorcist - 39


Blue Exorcist - 39


Blue Exorcist - 39