Tags
Language
Tags
July 2024
Su Mo Tu We Th Fr Sa
30 1 2 3 4 5 6
7 8 9 10 11 12 13
14 15 16 17 18 19 20
21 22 23 24 25 26 27
28 29 30 31 1 2 3

Chiikawa - 07

Posted By: Otaku
Chiikawa - 07

Chiikawa - 07
MKV | 1280x720 | 日本語 | H264 @ 511 kbps | AAC @ 157.491 kbps | 2 min 17 s | 11.1 MiB
Subtitles: English



[Erai-raws] Chiikawa - 07 [720p][70AA4E0A].mkv (11.1 MB)



General
Unique ID : 45800257057166162976720181648006774149 (0x2274CF03DD10D5D935C6DA6A03B2FD85)
Complete name : ./[Erai-raws] Chiikawa - 07 [720p][70AA4E0A].mkv
Format : Matroska
Format version : Version 4
File size : 11.1 MiB
Duration : 2 min 17 s
Overall bit rate : 676 kb/s
Encoded date : UTC 2022-09-29 17:55:21
Writing application : mkvmerge v68.0.0 ('The Curtain') 64-bit
Writing library : libebml v1.4.2 + libmatroska v1.6.4
Attachments : FirstGrader.ttf / Swis721_BT_Bold.ttf / VAGRoundedBT.ttf

Video
ID : 1
Format : AVC
Format/Info : Advanced Video Codec
Format profile : High@L4.1
Format settings : CABAC / 6 Ref Frames
Format settings, CABAC : Yes
Format settings, Reference frames : 6 frames
Codec ID : V_MPEG4/ISO/AVC
Duration : 2 min 16 s
Bit rate : 511 kb/s
Width : 1 280 pixels
Height : 720 pixels
Display aspect ratio : 16:9
Frame rate mode : Constant
Frame rate : 29.970 (30000/1001) FPS
Color space : YUV
Chroma subsampling : 4:2:0
Bit depth : 8 bits
Scan type : Progressive
Bits/(Pixel*Frame) : 0.019
Stream size : 8.30 MiB (75%)
Writing library : x264 core 148
Encoding settings : cabac=1 / ref=6 / deblock=1:0:0 / analyse=0x3:0x113 / me=hex / subme=7 / psy=1 / psy_rd=1.00:0.00 / mixed_ref=1 / me_range=16 / chroma_me=1 / trellis=1 / 8x8dct=1 / cqm=0 / deadzone=21,11 / fast_pskip=1 / chroma_qp_offset=-2 / threads=22 / lookahead_threads=3 / sliced_threads=0 / nr=0 / decimate=1 / interlaced=0 / bluray_compat=0 / constrained_intra=0 / bframes=3 / b_pyramid=2 / b_adapt=1 / b_bias=0 / direct=1 / weightb=1 / open_gop=0 / weightp=2 / keyint=90 / keyint_min=9 / scenecut=0 / intra_refresh=0 / rc_lookahead=40 / rc=crf / mbtree=1 / crf=22.0 / qcomp=0.60 / qpmin=0 / qpmax=69 / qpstep=4 / vbv_maxrate=11100 / vbv_bufsize=111000 / crf_max=0.0 / nal_hrd=none / filler=0 / ip_ratio=1.40 / aq=1:1.00
Language : Japanese
Default : Yes
Forced : No

Audio
ID : 2
Format : AAC LC
Format/Info : Advanced Audio Codec Low Complexity
Codec ID : A_AAC-2
Duration : 2 min 17 s
Bit rate : 157 kb/s
Channel(s) : 2 channels
Channel layout : L R
Sampling rate : 48.0 kHz
Frame rate : 46.875 FPS (1024 SPF)
Compression mode : Lossy
Delay relative to video : -1 s 20 ms
Stream size : 2.58 MiB (23%)
Language : Japanese
Default : Yes
Forced : No

Text
ID : 3
Format : ASS
Codec ID : S_TEXT/ASS
Codec ID/Info : Advanced Sub Station Alpha
Duration : 1 min 0 s
Bit rate : 127 b/s
Frame rate : 0.316 FPS
Count of elements : 19
Compression mode : Lossless
Stream size : 955 Bytes (0%)
Title : English
Language : English
Default : Yes
Forced : No





Chiikawa - 07


Chiikawa - 07


Chiikawa - 07


Chiikawa - 07