Tags
Language
Tags
April 2024
Su Mo Tu We Th Fr Sa
31 1 2 3 4 5 6
7 8 9 10 11 12 13
14 15 16 17 18 19 20
21 22 23 24 25 26 27
28 29 30 1 2 3 4

Clay Anime Taiko no Tatsujin (1080p, EN/ZH/KR subs) - "Episode 10 - Mecha-DON's Scary Operation V! mkv" yEnc

Posted By: Otaku
Clay Anime Taiko no Tatsujin (1080p, EN/ZH/KR subs)  - "Episode 10 - Mecha-DON's Scary Operation V! mkv" yEnc

Clay Anime Taiko no Tatsujin (1080p, EN/ZH/KR subs) - "Episode 10 - Mecha-DON's Scary Operation V! mkv" yEnc
WEBRip | MKV | 1920x1080 | 日本語 | H264 @ 1041 kbps | AAC @ 128.012 kbps | 4 min 0 s | 33.6 MiB
Subtitles: 中文, 한국어, English



Episode 10 - Mecha-DON's Scary Operation V!.mkv (33.6 MB)



General
Unique ID : 59115206742909132313687475785542546446 (0x2C792CB80E7E72B43449BC3EB5B6340E)
Complete name : ./Episode 10 - Mecha-DON's Scary Operation V!.mkv
Format : Matroska
Format version : Version 4
File size : 33.6 MiB
Duration : 4 min 0 s
Overall bit rate : 1 173 kb/s
Encoded date : UTC 2023-12-21 05:40:40
Writing application : mkvmerge v81.0 ('Milliontown') 64-bit
Writing library : libebml v1.4.4 + libmatroska v1.7.1 / Lavf58.35.100

Video
ID : 1
Format : AVC
Format/Info : Advanced Video Codec
Format profile : High@L4
Format settings : CABAC / 3 Ref Frames
Format settings, CABAC : Yes
Format settings, Reference frames : 3 frames
Codec ID : V_MPEG4/ISO/AVC
Duration : 4 min 0 s
Bit rate : 1 042 kb/s
Width : 1 920 pixels
Height : 1 080 pixels
Display aspect ratio : 16:9
Frame rate mode : Constant
Frame rate : 29.970 (30000/1001) FPS
Color space : YUV
Chroma subsampling : 4:2:0
Bit depth : 8 bits
Scan type : Progressive
Bits/(Pixel*Frame) : 0.017
Stream size : 29.8 MiB (89%)
Language : Japanese
Default : Yes
Forced : No
Color range : Limited
Color primaries : BT.709
Transfer characteristics : BT.709
Matrix coefficients : BT.709

Audio
ID : 2
Format : AAC LC
Format/Info : Advanced Audio Codec Low Complexity
Codec ID : A_AAC-2
Duration : 4 min 0 s
Bit rate : 128 kb/s
Channel(s) : 2 channels
Channel layout : L R
Sampling rate : 44.1 kHz
Frame rate : 43.066 FPS (1024 SPF)
Compression mode : Lossy
Stream size : 3.66 MiB (11%)
Language : Japanese
Default : Yes
Forced : No

Text #1
ID : 3
Format : UTF-8
Codec ID : S_TEXT/UTF8
Codec ID/Info : UTF-8 Plain Text
Duration : 3 min 21 s
Bit rate : 40 b/s
Frame rate : 0.233 FPS
Count of elements : 47
Stream size : 1 012 Bytes (0%)
Title : English
Language : English
Default : Yes
Forced : No

Text #2
ID : 4
Format : UTF-8
Codec ID : S_TEXT/UTF8
Codec ID/Info : UTF-8 Plain Text
Duration : 3 min 21 s
Bit rate : 39 b/s
Frame rate : 0.233 FPS
Count of elements : 47
Stream size : 991 Bytes (0%)
Title : 中文(台灣)
Language : Chinese
Default : Yes
Forced : No

Text #3
ID : 5
Format : UTF-8
Codec ID : S_TEXT/UTF8
Codec ID/Info : UTF-8 Plain Text
Duration : 3 min 21 s
Bit rate : 42 b/s
Frame rate : 0.233 FPS
Count of elements : 47
Stream size : 1.04 KiB (0%)
Title : 한국어
Language : Korean
Default : Yes
Forced : No





Clay Anime Taiko no Tatsujin (1080p, EN/ZH/KR subs)  - "Episode 10 - Mecha-DON's Scary Operation V! mkv" yEnc


Clay Anime Taiko no Tatsujin (1080p, EN/ZH/KR subs)  - "Episode 10 - Mecha-DON's Scary Operation V! mkv" yEnc


Clay Anime Taiko no Tatsujin (1080p, EN/ZH/KR subs)  - "Episode 10 - Mecha-DON's Scary Operation V! mkv" yEnc


Clay Anime Taiko no Tatsujin (1080p, EN/ZH/KR subs)  - "Episode 10 - Mecha-DON's Scary Operation V! mkv" yEnc