Tags
Language
Tags
April 2024
Su Mo Tu We Th Fr Sa
31 1 2 3 4 5 6
7 8 9 10 11 12 13
14 15 16 17 18 19 20
21 22 23 24 25 26 27
28 29 30 1 2 3 4

Clay Anime Taiko no Tatsujin (1080p, EN/ZH/KR subs Episode 22 Mecha DON World Grand Prix!! mkv" yEnc

Posted By: Otaku
Clay Anime Taiko no Tatsujin (1080p, EN/ZH/KR subs Episode 22 Mecha DON World Grand Prix!! mkv" yEnc

Clay Anime Taiko no Tatsujin (1080p, EN/ZH/KR subs Episode 22 Mecha DON World Grand Prix!! mkv" yEnc
WEBRip | MKV | 1920x1080 | 日本語 | H264 @ 774 kbps | AAC @ 128.02 kbps | 4 min 0 s | 25.9 MiB
Subtitles: 한국어, 中文, English



Episode 22 - Mecha-DON World Grand-Prix!!.mkv (25.9 MB)



General
Unique ID : 147742554397878101033843011137922635508 (0x6F262E533B49D20931BADDEFB89796F4)
Complete name : ./Episode 22 - Mecha-DON World Grand-Prix!!.mkv
Format : Matroska
Format version : Version 4
File size : 25.9 MiB
Duration : 4 min 0 s
Overall bit rate : 906 kb/s
Encoded date : UTC 2024-01-25 06:14:08
Writing application : mkvmerge v82.0 ('I'm The President') 64-bit
Writing library : libebml v1.4.5 + libmatroska v1.7.1

Video
ID : 1
Format : AVC
Format/Info : Advanced Video Codec
Format profile : High@L4
Format settings : CABAC / 3 Ref Frames
Format settings, CABAC : Yes
Format settings, Reference frames : 3 frames
Codec ID : V_MPEG4/ISO/AVC
Duration : 4 min 0 s
Bit rate : 775 kb/s
Width : 1 920 pixels
Height : 1 080 pixels
Display aspect ratio : 16:9
Frame rate mode : Constant
Frame rate : 29.970 (30000/1001) FPS
Color space : YUV
Chroma subsampling : 4:2:0
Bit depth : 8 bits
Scan type : Progressive
Bits/(Pixel*Frame) : 0.012
Stream size : 22.2 MiB (86%)
Language : Japanese
Default : Yes
Forced : No
Color range : Limited
Color primaries : BT.709
Transfer characteristics : BT.709
Matrix coefficients : BT.709

Audio
ID : 2
Format : AAC LC
Format/Info : Advanced Audio Codec Low Complexity
Codec ID : A_AAC-2
Duration : 4 min 0 s
Bit rate : 128 kb/s
Channel(s) : 2 channels
Channel layout : L R
Sampling rate : 44.1 kHz
Frame rate : 43.066 FPS (1024 SPF)
Compression mode : Lossy
Stream size : 3.66 MiB (14%)
Language : Japanese
Default : Yes
Forced : No

Text #1
ID : 3
Format : UTF-8
Codec ID : S_TEXT/UTF8
Codec ID/Info : UTF-8 Plain Text
Duration : 3 min 13 s
Bit rate : 41 b/s
Frame rate : 0.186 FPS
Count of elements : 36
Stream size : 997 Bytes (0%)
Title : English
Language : English
Default : Yes
Forced : No

Text #2
ID : 4
Format : UTF-8
Codec ID : S_TEXT/UTF8
Codec ID/Info : UTF-8 Plain Text
Duration : 3 min 13 s
Bit rate : 41 b/s
Frame rate : 0.192 FPS
Count of elements : 37
Stream size : 1 009 Bytes (0%)
Title : 中文(台灣)
Language : Chinese
Default : Yes
Forced : No

Text #3
ID : 5
Format : UTF-8
Codec ID : S_TEXT/UTF8
Codec ID/Info : UTF-8 Plain Text
Duration : 3 min 13 s
Bit rate : 44 b/s
Frame rate : 0.192 FPS
Count of elements : 37
Stream size : 1.04 KiB (0%)
Title : 한국어
Language : Korean
Default : Yes
Forced : No





Clay Anime Taiko no Tatsujin (1080p, EN/ZH/KR subs Episode 22 Mecha DON World Grand Prix!! mkv" yEnc


Clay Anime Taiko no Tatsujin (1080p, EN/ZH/KR subs Episode 22 Mecha DON World Grand Prix!! mkv" yEnc


Clay Anime Taiko no Tatsujin (1080p, EN/ZH/KR subs Episode 22 Mecha DON World Grand Prix!! mkv" yEnc


Clay Anime Taiko no Tatsujin (1080p, EN/ZH/KR subs Episode 22 Mecha DON World Grand Prix!! mkv" yEnc