Tags
Language
Tags
May 2024
Su Mo Tu We Th Fr Sa
28 29 30 1 2 3 4
5 6 7 8 9 10 11
12 13 14 15 16 17 18
19 20 21 22 23 24 25
26 27 28 29 30 31 1

Delicious in Dungeon - S01E12 - MULTi 1080p WEB H 264 -NanDesuKa (DSNP

Posted By: Otaku
Delicious in Dungeon - S01E12 - MULTi 1080p WEB H 264 -NanDesuKa (DSNP

Delicious in Dungeon - S01E12 - MULTi 1080p WEB H 264 -NanDesuKa (DSNP
MKV | 1920x1080 | 日本語 / English / Italiano / Bahasa Indonesia / العربية / Español / Deutsch / ภาษาไทย / Português / Français / हिन्दी | H264 @ 4194 kbps | E-AC-3 @ 640.0 kbps | 24 min 2 s | 1.99 GiB
Subtitles: Dansk, English, Italiano, tiếng Việt, Türkçe, Polski, Hrvatski, Svenska, Magyar, Français, Suomi, Українська, Español, Bokmål, Nederlands, 한국어, Deutsch, עברית, हिन्दी, 中文, Bahasa Indonesia, العربية, Română, ภาษาไทย, Čeština, 日本語, Ελληνικά, Português



Delicious in Dungeon - S01E12 - MULTi 1080p WEB H.264 -NanDesuKa (DSNP).mkv (2.0 GB)



General
Unique ID : 62354806881353572339191837904923732438 (0x2EE919566BBFCB10A2632011E15B29D6)
Complete name : ./Delicious in Dungeon - S01E12 - MULTi 1080p WEB H.264 -NanDesuKa (DSNP).mkv
Format : Matroska
Format version : Version 4
File size : 1.99 GiB
Duration : 24 min 2 s
Overall bit rate mode : Variable
Overall bit rate : 11.9 Mb/s
Writing application : mkvmerge v83.0 ('Circle Of Friends') 64-bit
Writing library : libebml v1.4.5 + libmatroska v1.7.1

Video
ID : 1
Format : AVC
Format/Info : Advanced Video Codec
Format profile : High@L4
Format settings : CABAC / 4 Ref Frames
Format settings, CABAC : Yes
Format settings, Reference frames : 4 frames
Codec ID : V_MPEG4/ISO/AVC
Duration : 24 min 2 s
Bit rate mode : Variable
Bit rate : 4 194 kb/s
Maximum bit rate : 12.7 Mb/s
Width : 1 920 pixels
Height : 1 080 pixels
Display aspect ratio : 16:9
Frame rate mode : Constant
Frame rate : 23.976 (24000/1001) FPS
Color space : YUV
Chroma subsampling : 4:2:0
Bit depth : 8 bits
Scan type : Progressive
Bits/(Pixel*Frame) : 0.084
Stream size : 721 MiB (35%)
Default : Yes
Forced : No
Color range : Limited
Color primaries : BT.709
Transfer characteristics : BT.709
Matrix coefficients : BT.709

Audio #1
ID : 2
Format : E-AC-3
Format/Info : Enhanced AC-3
Commercial name : Dolby Digital Plus
Codec ID : A_EAC3
Duration : 24 min 0 s
Bit rate mode : Constant
Bit rate : 640 kb/s
Channel(s) : 6 channels
Channel layout : L R C LFE Ls Rs
Sampling rate : 48.0 kHz
Frame rate : 31.250 FPS (1536 SPF)
Compression mode : Lossy
Delay relative to video : 1 s 23 ms
Stream size : 110 MiB (5%)
Language : Japanese
Service kind : Complete Main
Default : Yes
Forced : No

Audio #2
ID : 3
Format : E-AC-3
Format/Info : Enhanced AC-3
Commercial name : Dolby Digital Plus
Codec ID : A_EAC3
Duration : 24 min 0 s
Bit rate mode : Constant
Bit rate : 640 kb/s
Channel(s) : 6 channels
Channel layout : L R C LFE Ls Rs
Sampling rate : 48.0 kHz
Frame rate : 31.250 FPS (1536 SPF)
Compression mode : Lossy
Delay relative to video : 1 s 23 ms
Stream size : 110 MiB (5%)
Language : Arabic
Service kind : Complete Main
Default : No
Forced : No

Audio #3
ID : 4
Format : E-AC-3
Format/Info : Enhanced AC-3
Commercial name : Dolby Digital Plus
Codec ID : A_EAC3
Duration : 24 min 0 s
Bit rate mode : Constant
Bit rate : 640 kb/s
Channel(s) : 6 channels
Channel layout : L R C LFE Ls Rs
Sampling rate : 48.0 kHz
Frame rate : 31.250 FPS (1536 SPF)
Compression mode : Lossy
Delay relative to video : 1 s 23 ms
Stream size : 110 MiB (5%)
Language : German
Service kind : Complete Main
Default : No
Forced : No

Audio #4
ID : 5
Format : E-AC-3
Format/Info : Enhanced AC-3
Commercial name : Dolby Digital Plus
Codec ID : A_EAC3
Duration : 24 min 0 s
Bit rate mode : Constant
Bit rate : 640 kb/s
Channel(s) : 6 channels
Channel layout : L R C LFE Ls Rs
Sampling rate : 48.0 kHz
Frame rate : 31.250 FPS (1536 SPF)
Compression mode : Lossy
Delay relative to video : 1 s 23 ms
Stream size : 110 MiB (5%)
Language : English
Service kind : Complete Main
Default : No
Forced : No

Audio #5
ID : 6
Format : E-AC-3
Format/Info : Enhanced AC-3
Commercial name : Dolby Digital Plus
Codec ID : A_EAC3
Duration : 24 min 0 s
Bit rate mode : Constant
Bit rate : 640 kb/s
Channel(s) : 6 channels
Channel layout : L R C LFE Ls Rs
Sampling rate : 48.0 kHz
Frame rate : 31.250 FPS (1536 SPF)
Compression mode : Lossy
Delay relative to video : 1 s 23 ms
Stream size : 110 MiB (5%)
Title : Latin American
Language : Spanish
Service kind : Complete Main
Default : No
Forced : No

Audio #6
ID : 7
Format : E-AC-3
Format/Info : Enhanced AC-3
Commercial name : Dolby Digital Plus
Codec ID : A_EAC3
Duration : 24 min 0 s
Bit rate mode : Constant
Bit rate : 640 kb/s
Channel(s) : 6 channels
Channel layout : L R C LFE Ls Rs
Sampling rate : 48.0 kHz
Frame rate : 31.250 FPS (1536 SPF)
Compression mode : Lossy
Delay relative to video : 1 s 23 ms
Stream size : 110 MiB (5%)
Title : European
Language : Spanish
Service kind : Complete Main
Default : No
Forced : No

Audio #7
ID : 8
Format : E-AC-3
Format/Info : Enhanced AC-3
Commercial name : Dolby Digital Plus
Codec ID : A_EAC3
Duration : 24 min 0 s
Bit rate mode : Constant
Bit rate : 640 kb/s
Channel(s) : 6 channels
Channel layout : L R C LFE Ls Rs
Sampling rate : 48.0 kHz
Frame rate : 31.250 FPS (1536 SPF)
Compression mode : Lossy
Delay relative to video : 1 s 23 ms
Stream size : 110 MiB (5%)
Language : French
Service kind : Complete Main
Default : No
Forced : No

Audio #8
ID : 9
Format : E-AC-3
Format/Info : Enhanced AC-3
Commercial name : Dolby Digital Plus
Codec ID : A_EAC3
Duration : 24 min 0 s
Bit rate mode : Constant
Bit rate : 640 kb/s
Channel(s) : 6 channels
Channel layout : L R C LFE Ls Rs
Sampling rate : 48.0 kHz
Frame rate : 31.250 FPS (1536 SPF)
Compression mode : Lossy
Delay relative to video : 1 s 23 ms
Stream size : 110 MiB (5%)
Language : Hindi
Service kind : Complete Main
Default : No
Forced : No

Audio #9
ID : 10
Format : E-AC-3
Format/Info : Enhanced AC-3
Commercial name : Dolby Digital Plus
Codec ID : A_EAC3
Duration : 24 min 0 s
Bit rate mode : Constant
Bit rate : 640 kb/s
Channel(s) : 6 channels
Channel layout : L R C LFE Ls Rs
Sampling rate : 48.0 kHz
Frame rate : 31.250 FPS (1536 SPF)
Compression mode : Lossy
Delay relative to video : 1 s 23 ms
Stream size : 110 MiB (5%)
Language : Indonesian
Service kind : Complete Main
Default : No
Forced : No

Audio #10
ID : 11
Format : E-AC-3
Format/Info : Enhanced AC-3
Commercial name : Dolby Digital Plus
Codec ID : A_EAC3
Duration : 24 min 0 s
Bit rate mode : Constant
Bit rate : 640 kb/s
Channel(s) : 6 channels
Channel layout : L R C LFE Ls Rs
Sampling rate : 48.0 kHz
Frame rate : 31.250 FPS (1536 SPF)
Compression mode : Lossy
Delay relative to video : 1 s 23 ms
Stream size : 110 MiB (5%)
Language : Italian
Service kind : Complete Main
Default : No
Forced : No

Audio #11
ID : 12
Format : E-AC-3
Format/Info : Enhanced AC-3
Commercial name : Dolby Digital Plus
Codec ID : A_EAC3
Duration : 24 min 0 s
Bit rate mode : Constant
Bit rate : 640 kb/s
Channel(s) : 6 channels
Channel layout : L R C LFE Ls Rs
Sampling rate : 48.0 kHz
Frame rate : 31.250 FPS (1536 SPF)
Compression mode : Lossy
Delay relative to video : 1 s 23 ms
Stream size : 110 MiB (5%)
Title : Brazilian
Language : Portuguese
Service kind : Complete Main
Default : No
Forced : No

Audio #12
ID : 13
Format : E-AC-3
Format/Info : Enhanced AC-3
Commercial name : Dolby Digital Plus
Codec ID : A_EAC3
Duration : 24 min 0 s
Bit rate mode : Constant
Bit rate : 640 kb/s
Channel(s) : 6 channels
Channel layout : L R C LFE Ls Rs
Sampling rate : 48.0 kHz
Frame rate : 31.250 FPS (1536 SPF)
Compression mode : Lossy
Delay relative to video : 1 s 23 ms
Stream size : 110 MiB (5%)
Language : Thai
Service kind : Complete Main
Default : No
Forced : No

Text #1
ID : 14
Format : UTF-8
Codec ID : S_TEXT/UTF8
Codec ID/Info : UTF-8 Plain Text
Duration : 22 min 33 s
Bit rate : 103 b/s
Frame rate : 0.341 FPS
Count of elements : 462
Stream size : 17.1 KiB (0%)
Language : Japanese
Default : No
Forced : No

Text #2
ID : 15
Format : UTF-8
Codec ID : S_TEXT/UTF8
Codec ID/Info : UTF-8 Plain Text
Duration : 22 min 33 s
Bit rate : 104 b/s
Frame rate : 0.341 FPS
Count of elements : 462
Stream size : 17.2 KiB (0%)
Title : SDH
Language : Japanese
Default : No
Forced : No

Text #3
ID : 16
Format : UTF-8
Codec ID : S_TEXT/UTF8
Codec ID/Info : UTF-8 Plain Text
Duration : 10 min 16 s
Bit rate : 2 b/s
Frame rate : 0.006 FPS
Count of elements : 4
Stream size : 178 Bytes (0%)
Title : Forced
Language : Arabic
Default : No
Forced : Yes

Text #4
ID : 17
Format : UTF-8
Codec ID : S_TEXT/UTF8
Codec ID/Info : UTF-8 Plain Text
Duration : 14 min 27 s
Bit rate : 0 b/s
Frame rate : 0.005 FPS
Count of elements : 4
Stream size : 107 Bytes (0%)
Title : Forced
Language : German
Default : No
Forced : Yes

Text #5
ID : 18
Format : UTF-8
Codec ID : S_TEXT/UTF8
Codec ID/Info : UTF-8 Plain Text
Duration : 14 min 27 s
Bit rate : 1 b/s
Frame rate : 0.006 FPS
Count of elements : 5
Stream size : 109 Bytes (0%)
Title : Latin American (Forced)
Language : Spanish
Default : No
Forced : Yes

Text #6
ID : 19
Format : UTF-8
Codec ID : S_TEXT/UTF8
Codec ID/Info : UTF-8 Plain Text
Duration : 14 min 27 s
Bit rate : 1 b/s
Frame rate : 0.006 FPS
Count of elements : 5
Stream size : 117 Bytes (0%)
Title : European (Forced)
Language : Spanish
Default : No
Forced : Yes

Text #7
ID : 20
Format : UTF-8
Codec ID : S_TEXT/UTF8
Codec ID/Info : UTF-8 Plain Text
Duration : 14 min 27 s
Bit rate : 1 b/s
Frame rate : 0.005 FPS
Count of elements : 4
Stream size : 120 Bytes (0%)
Title : Forced
Language : French
Default : No
Forced : Yes

Text #8
ID : 21
Format : UTF-8
Codec ID : S_TEXT/UTF8
Codec ID/Info : UTF-8 Plain Text
Duration : 10 min 17 s
Bit rate : 0 b/s
Frame rate : 0.006 FPS
Count of elements : 4
Stream size : 74.0 Bytes (0%)
Title : Latin (Forced)
Language : Hindi
Default : No
Forced : Yes

Text #9
ID : 22
Format : UTF-8
Codec ID : S_TEXT/UTF8
Codec ID/Info : UTF-8 Plain Text
Duration : 14 min 28 s
Bit rate : 0 b/s
Frame rate : 0.006 FPS
Count of elements : 5
Stream size : 92.0 Bytes (0%)
Title : Forced
Language : Indonesian
Default : No
Forced : Yes

Text #10
ID : 23
Format : UTF-8
Codec ID : S_TEXT/UTF8
Codec ID/Info : UTF-8 Plain Text
Duration : 10 min 17 s
Bit rate : 1 b/s
Frame rate : 0.006 FPS
Count of elements : 4
Stream size : 100 Bytes (0%)
Title : Forced
Language : Italian
Default : No
Forced : Yes

Text #11
ID : 24
Format : UTF-8
Codec ID : S_TEXT/UTF8
Codec ID/Info : UTF-8 Plain Text
Duration : 10 min 17 s
Bit rate : 2 b/s
Frame rate : 0.006 FPS
Count of elements : 4
Stream size : 201 Bytes (0%)
Title : Forced
Language : Thai
Default : No
Forced : Yes

Text #12
ID : 25
Format : UTF-8
Codec ID : S_TEXT/UTF8
Codec ID/Info : UTF-8 Plain Text
Duration : 22 min 38 s
Bit rate : 112 b/s
Frame rate : 0.280 FPS
Count of elements : 380
Stream size : 18.7 KiB (0%)
Language : Arabic
Default : No
Forced : No

Text #13
ID : 26
Format : UTF-8
Codec ID : S_TEXT/UTF8
Codec ID/Info : UTF-8 Plain Text
Duration : 22 min 38 s
Bit rate : 62 b/s
Frame rate : 0.280 FPS
Count of elements : 380
Stream size : 10.3 KiB (0%)
Language : Czech
Default : No
Forced : No

Text #14
ID : 27
Format : UTF-8
Codec ID : S_TEXT/UTF8
Codec ID/Info : UTF-8 Plain Text
Duration : 22 min 37 s
Bit rate : 68 b/s
Frame rate : 0.280 FPS
Count of elements : 380
Stream size : 11.3 KiB (0%)
Language : Danish
Default : No
Forced : No

Text #15
ID : 28
Format : UTF-8
Codec ID : S_TEXT/UTF8
Codec ID/Info : UTF-8 Plain Text
Duration : 22 min 37 s
Bit rate : 63 b/s
Frame rate : 0.280 FPS
Count of elements : 380
Stream size : 10.6 KiB (0%)
Language : German
Default : No
Forced : No

Text #16
ID : 29
Format : UTF-8
Codec ID : S_TEXT/UTF8
Codec ID/Info : UTF-8 Plain Text
Duration : 22 min 37 s
Bit rate : 114 b/s
Frame rate : 0.279 FPS
Count of elements : 379
Stream size : 19.0 KiB (0%)
Language : Greek
Default : No
Forced : No

Text #17
ID : 30
Format : UTF-8
Codec ID : S_TEXT/UTF8
Codec ID/Info : UTF-8 Plain Text
Duration : 22 min 38 s
Bit rate : 72 b/s
Frame rate : 0.280 FPS
Count of elements : 380
Stream size : 11.9 KiB (0%)
Language : English
Default : No
Forced : No

Text #18
ID : 31
Format : UTF-8
Codec ID : S_TEXT/UTF8
Codec ID/Info : UTF-8 Plain Text
Duration : 21 min 10 s
Bit rate : 95 b/s
Frame rate : 0.370 FPS
Count of elements : 470
Stream size : 14.9 KiB (0%)
Title : SDH
Language : English
Default : No
Forced : No

Text #19
ID : 32
Format : UTF-8
Codec ID : S_TEXT/UTF8
Codec ID/Info : UTF-8 Plain Text
Duration : 22 min 38 s
Bit rate : 70 b/s
Frame rate : 0.280 FPS
Count of elements : 380
Stream size : 11.6 KiB (0%)
Title : Latin American
Language : Spanish
Default : No
Forced : No

Text #20
ID : 33
Format : UTF-8
Codec ID : S_TEXT/UTF8
Codec ID/Info : UTF-8 Plain Text
Duration : 22 min 38 s
Bit rate : 70 b/s
Frame rate : 0.278 FPS
Count of elements : 377
Stream size : 11.7 KiB (0%)
Title : European
Language : Spanish
Default : No
Forced : No

Text #21
ID : 34
Format : UTF-8
Codec ID : S_TEXT/UTF8
Codec ID/Info : UTF-8 Plain Text
Duration : 22 min 37 s
Bit rate : 69 b/s
Frame rate : 0.280 FPS
Count of elements : 380
Stream size : 11.4 KiB (0%)
Language : Finnish
Default : No
Forced : No

Text #22
ID : 35
Format : UTF-8
Codec ID : S_TEXT/UTF8
Codec ID/Info : UTF-8 Plain Text
Duration : 22 min 37 s
Bit rate : 77 b/s
Frame rate : 0.287 FPS
Count of elements : 389
Stream size : 12.8 KiB (0%)
Language : fil
Default : No
Forced : No

Text #23
ID : 36
Format : UTF-8
Codec ID : S_TEXT/UTF8
Codec ID/Info : UTF-8 Plain Text
Duration : 22 min 38 s
Bit rate : 69 b/s
Frame rate : 0.280 FPS
Count of elements : 380
Stream size : 11.6 KiB (0%)
Language : French
Default : No
Forced : No

Text #24
ID : 37
Format : UTF-8
Codec ID : S_TEXT/UTF8
Codec ID/Info : UTF-8 Plain Text
Duration : 22 min 38 s
Bit rate : 102 b/s
Frame rate : 0.280 FPS
Count of elements : 380
Stream size : 17.0 KiB (0%)
Language : Hebrew
Default : No
Forced : No

Text #25
ID : 38
Format : UTF-8
Codec ID : S_TEXT/UTF8
Codec ID/Info : UTF-8 Plain Text
Duration : 23 min 58 s
Bit rate : 178 b/s
Frame rate : 0.265 FPS
Count of elements : 381
Stream size : 31.3 KiB (0%)
Language : Hindi
Default : No
Forced : No

Text #26
ID : 39
Format : UTF-8
Codec ID : S_TEXT/UTF8
Codec ID/Info : UTF-8 Plain Text
Duration : 22 min 38 s
Bit rate : 59 b/s
Frame rate : 0.280 FPS
Count of elements : 380
Stream size : 9.84 KiB (0%)
Language : Croatian
Default : No
Forced : No

Text #27
ID : 40
Format : UTF-8
Codec ID : S_TEXT/UTF8
Codec ID/Info : UTF-8 Plain Text
Duration : 22 min 38 s
Bit rate : 66 b/s
Frame rate : 0.280 FPS
Count of elements : 380
Stream size : 11.0 KiB (0%)
Language : Hungarian
Default : No
Forced : No

Text #28
ID : 41
Format : UTF-8
Codec ID : S_TEXT/UTF8
Codec ID/Info : UTF-8 Plain Text
Duration : 22 min 37 s
Bit rate : 72 b/s
Frame rate : 0.284 FPS
Count of elements : 385
Stream size : 12.0 KiB (0%)
Language : Indonesian
Default : No
Forced : No

Text #29
ID : 42
Format : UTF-8
Codec ID : S_TEXT/UTF8
Codec ID/Info : UTF-8 Plain Text
Duration : 22 min 37 s
Bit rate : 69 b/s
Frame rate : 0.280 FPS
Count of elements : 380
Stream size : 11.5 KiB (0%)
Language : Italian
Default : No
Forced : No

Text #30
ID : 43
Format : UTF-8
Codec ID : S_TEXT/UTF8
Codec ID/Info : UTF-8 Plain Text
Duration : 22 min 38 s
Bit rate : 69 b/s
Frame rate : 0.280 FPS
Count of elements : 380
Stream size : 11.5 KiB (0%)
Language : Korean
Default : No
Forced : No

Text #31
ID : 44
Format : UTF-8
Codec ID : S_TEXT/UTF8
Codec ID/Info : UTF-8 Plain Text
Duration : 22 min 38 s
Bit rate : 69 b/s
Frame rate : 0.280 FPS
Count of elements : 380
Stream size : 11.5 KiB (0%)
Language : Malay
Default : No
Forced : No

Text #32
ID : 45
Format : UTF-8
Codec ID : S_TEXT/UTF8
Codec ID/Info : UTF-8 Plain Text
Duration : 22 min 38 s
Bit rate : 66 b/s
Frame rate : 0.279 FPS
Count of elements : 379
Stream size : 11.0 KiB (0%)
Language : Norwegian Bokmal
Default : No
Forced : No

Text #33
ID : 46
Format : UTF-8
Codec ID : S_TEXT/UTF8
Codec ID/Info : UTF-8 Plain Text
Duration : 22 min 38 s
Bit rate : 66 b/s
Frame rate : 0.280 FPS
Count of elements : 380
Stream size : 11.1 KiB (0%)
Language : Dutch
Default : No
Forced : No

Text #34
ID : 47
Format : UTF-8
Codec ID : S_TEXT/UTF8
Codec ID/Info : UTF-8 Plain Text
Duration : 22 min 37 s
Bit rate : 63 b/s
Frame rate : 0.275 FPS
Count of elements : 373
Stream size : 10.5 KiB (0%)
Language : Polish
Default : No
Forced : No

Text #35
ID : 48
Format : UTF-8
Codec ID : S_TEXT/UTF8
Codec ID/Info : UTF-8 Plain Text
Duration : 22 min 38 s
Bit rate : 67 b/s
Frame rate : 0.278 FPS
Count of elements : 378
Stream size : 11.2 KiB (0%)
Title : Brazilian
Language : Portuguese
Default : No
Forced : No

Text #36
ID : 49
Format : UTF-8
Codec ID : S_TEXT/UTF8
Codec ID/Info : UTF-8 Plain Text
Duration : 22 min 38 s
Bit rate : 68 b/s
Frame rate : 0.270 FPS
Count of elements : 367
Stream size : 11.4 KiB (0%)
Title : European
Language : Portuguese
Default : No
Forced : No

Text #37
ID : 50
Format : UTF-8
Codec ID : S_TEXT/UTF8
Codec ID/Info : UTF-8 Plain Text
Duration : 22 min 38 s
Bit rate : 66 b/s
Frame rate : 0.279 FPS
Count of elements : 379
Stream size : 11.1 KiB (0%)
Language : Romanian
Default : No
Forced : No

Text #38
ID : 51
Format : UTF-8
Codec ID : S_TEXT/UTF8
Codec ID/Info : UTF-8 Plain Text
Duration : 22 min 38 s
Bit rate : 67 b/s
Frame rate : 0.280 FPS
Count of elements : 380
Stream size : 11.2 KiB (0%)
Language : Swedish
Default : No
Forced : No

Text #39
ID : 52
Format : UTF-8
Codec ID : S_TEXT/UTF8
Codec ID/Info : UTF-8 Plain Text
Duration : 22 min 37 s
Bit rate : 158 b/s
Frame rate : 0.279 FPS
Count of elements : 379
Stream size : 26.3 KiB (0%)
Language : Thai
Default : No
Forced : No

Text #40
ID : 53
Format : UTF-8
Codec ID : S_TEXT/UTF8
Codec ID/Info : UTF-8 Plain Text
Duration : 22 min 38 s
Bit rate : 69 b/s
Frame rate : 0.280 FPS
Count of elements : 380
Stream size : 11.5 KiB (0%)
Language : Turkish
Default : No
Forced : No

Text #41
ID : 54
Format : UTF-8
Codec ID : S_TEXT/UTF8
Codec ID/Info : UTF-8 Plain Text
Duration : 22 min 38 s
Bit rate : 116 b/s
Frame rate : 0.279 FPS
Count of elements : 379
Stream size : 19.4 KiB (0%)
Language : Ukrainian
Default : No
Forced : No

Text #42
ID : 55
Format : UTF-8
Codec ID : S_TEXT/UTF8
Codec ID/Info : UTF-8 Plain Text
Duration : 22 min 37 s
Bit rate : 92 b/s
Frame rate : 0.275 FPS
Count of elements : 373
Stream size : 15.4 KiB (0%)
Language : Vietnamese
Default : No
Forced : No

Text #43
ID : 56
Format : UTF-8
Codec ID : S_TEXT/UTF8
Codec ID/Info : UTF-8 Plain Text
Duration : 22 min 38 s
Bit rate : 64 b/s
Frame rate : 0.280 FPS
Count of elements : 380
Stream size : 10.6 KiB (0%)
Title : Simplified
Language : Chinese
Default : No
Forced : No

Text #44
ID : 57
Format : UTF-8
Codec ID : S_TEXT/UTF8
Codec ID/Info : UTF-8 Plain Text
Duration : 22 min 38 s
Bit rate : 65 b/s
Frame rate : 0.280 FPS
Count of elements : 380
Stream size : 10.8 KiB (0%)
Title : Traditional
Language : Chinese
Default : No
Forced : No

Text #45
ID : 58
Format : UTF-8
Codec ID : S_TEXT/UTF8
Codec ID/Info : UTF-8 Plain Text
Duration : 20 min 39 s
Bit rate : 85 b/s
Frame rate : 0.347 FPS
Count of elements : 430
Stream size : 12.9 KiB (0%)
Title : Dub
Language : English
Default : No
Forced : No

Text #46
ID : 59
Format : UTF-8
Codec ID : S_TEXT/UTF8
Codec ID/Info : UTF-8 Plain Text
Duration : 20 min 36 s
Bit rate : 79 b/s
Frame rate : 0.259 FPS
Count of elements : 320
Stream size : 12.0 KiB (0%)
Title : European (Dub)
Language : Spanish
Default : No
Forced : No

Text #47
ID : 60
Format : UTF-8
Codec ID : S_TEXT/UTF8
Codec ID/Info : UTF-8 Plain Text
Duration : 20 min 36 s
Bit rate : 105 b/s
Frame rate : 0.363 FPS
Count of elements : 449
Stream size : 15.9 KiB (0%)
Title : Dub
Language : French
Default : No
Forced : No

Text #48
ID : 61
Format : UTF-8
Codec ID : S_TEXT/UTF8
Codec ID/Info : UTF-8 Plain Text
Duration : 20 min 36 s
Bit rate : 84 b/s
Frame rate : 0.268 FPS
Count of elements : 331
Stream size : 12.8 KiB (0%)
Title : Dub
Language : Indonesian
Default : No
Forced : No

Text #49
ID : 62
Format : UTF-8
Codec ID : S_TEXT/UTF8
Codec ID/Info : UTF-8 Plain Text
Duration : 20 min 29 s
Bit rate : 89 b/s
Frame rate : 0.277 FPS
Count of elements : 341
Stream size : 13.4 KiB (0%)
Title : Dub
Language : Italian
Default : No
Forced : No

Text #50
ID : 63
Format : UTF-8
Codec ID : S_TEXT/UTF8
Codec ID/Info : UTF-8 Plain Text
Duration : 20 min 29 s
Bit rate : 222 b/s
Frame rate : 0.325 FPS
Count of elements : 399
Stream size : 33.5 KiB (0%)
Title : Dub
Language : Thai
Default : No
Forced : No

Menu
00:00:00.000 : en:Intro
00:01:28.323 : en:Part 01
00:22:31.273 : en:Credits





Delicious in Dungeon - S01E12 - MULTi 1080p WEB H 264 -NanDesuKa (DSNP


Delicious in Dungeon - S01E12 - MULTi 1080p WEB H 264 -NanDesuKa (DSNP


Delicious in Dungeon - S01E12 - MULTi 1080p WEB H 264 -NanDesuKa (DSNP


Delicious in Dungeon - S01E12 - MULTi 1080p WEB H 264 -NanDesuKa (DSNP