Tags
Language
Tags
May 2024
Su Mo Tu We Th Fr Sa
28 29 30 1 2 3 4
5 6 7 8 9 10 11
12 13 14 15 16 17 18
19 20 21 22 23 24 25
26 27 28 29 30 31 1

Delicious in Dungeon - S01E16 - MULTi 1080p WEB H 264 -NanDesuKa (DSNP

Posted By: Otaku
Delicious in Dungeon - S01E16 - MULTi 1080p WEB H 264 -NanDesuKa (DSNP

Delicious in Dungeon - S01E16 - MULTi 1080p WEB H 264 -NanDesuKa (DSNP
MKV | 1920x1080 | 日本語 / Italiano / Português / Deutsch / English / Français / العربية / ภาษาไทย / Bahasa Indonesia / Español / हिन्दी | H264 @ 4118 kbps | E-AC-3 @ 640.0 kbps | 25 min 2 s | 2.06 GiB
Subtitles: Suomi, Polski, Čeština, Українська, Română, Nederlands, ภาษาไทย, עברית, English, tiếng Việt, Hrvatski, Español, Svenska, हिन्दी, Türkçe, Ελληνικά, Bokmål, Dansk, Deutsch, 한국어, Magyar, 中文, 日本語, Italiano, Português, Français, العربية, Bahasa Indonesia



Delicious in Dungeon - S01E16 - MULTi 1080p WEB H.264 -NanDesuKa (DSNP).mkv (2.1 GB)



General
Unique ID : 103926935890154221301956508210439983811 (0x4E2F998B92090158E6C2631076B912C3)
Complete name : ./Delicious in Dungeon - S01E16 - MULTi 1080p WEB H.264 -NanDesuKa (DSNP).mkv
Format : Matroska
Format version : Version 4
File size : 2.06 GiB
Duration : 25 min 2 s
Overall bit rate mode : Variable
Overall bit rate : 11.8 Mb/s
Writing application : mkvmerge v83.0 ('Circle Of Friends') 64-bit
Writing library : libebml v1.4.5 + libmatroska v1.7.1

Video
ID : 1
Format : AVC
Format/Info : Advanced Video Codec
Format profile : High@L4
Format settings : CABAC / 4 Ref Frames
Format settings, CABAC : Yes
Format settings, Reference frames : 4 frames
Codec ID : V_MPEG4/ISO/AVC
Duration : 25 min 2 s
Bit rate mode : Variable
Bit rate : 4 118 kb/s
Maximum bit rate : 12.7 Mb/s
Width : 1 920 pixels
Height : 1 080 pixels
Display aspect ratio : 16:9
Frame rate mode : Constant
Frame rate : 23.976 (24000/1001) FPS
Color space : YUV
Chroma subsampling : 4:2:0
Bit depth : 8 bits
Scan type : Progressive
Bits/(Pixel*Frame) : 0.083
Stream size : 737 MiB (35%)
Default : Yes
Forced : No
Color range : Limited
Color primaries : BT.709
Transfer characteristics : BT.709
Matrix coefficients : BT.709

Audio #1
ID : 2
Format : E-AC-3
Format/Info : Enhanced AC-3
Commercial name : Dolby Digital Plus
Codec ID : A_EAC3
Duration : 25 min 1 s
Bit rate mode : Constant
Bit rate : 640 kb/s
Channel(s) : 6 channels
Channel layout : L R C LFE Ls Rs
Sampling rate : 48.0 kHz
Frame rate : 31.250 FPS (1536 SPF)
Compression mode : Lossy
Delay relative to video : 1 s 8 ms
Stream size : 115 MiB (5%)
Language : Japanese
Service kind : Complete Main
Default : Yes
Forced : No

Audio #2
ID : 3
Format : E-AC-3
Format/Info : Enhanced AC-3
Commercial name : Dolby Digital Plus
Codec ID : A_EAC3
Duration : 25 min 1 s
Bit rate mode : Constant
Bit rate : 640 kb/s
Channel(s) : 6 channels
Channel layout : L R C LFE Ls Rs
Sampling rate : 48.0 kHz
Frame rate : 31.250 FPS (1536 SPF)
Compression mode : Lossy
Delay relative to video : 1 s 8 ms
Stream size : 115 MiB (5%)
Language : Arabic
Service kind : Complete Main
Default : No
Forced : No

Audio #3
ID : 4
Format : E-AC-3
Format/Info : Enhanced AC-3
Commercial name : Dolby Digital Plus
Codec ID : A_EAC3
Duration : 25 min 1 s
Bit rate mode : Constant
Bit rate : 640 kb/s
Channel(s) : 6 channels
Channel layout : L R C LFE Ls Rs
Sampling rate : 48.0 kHz
Frame rate : 31.250 FPS (1536 SPF)
Compression mode : Lossy
Delay relative to video : 1 s 8 ms
Stream size : 115 MiB (5%)
Language : German
Service kind : Complete Main
Default : No
Forced : No

Audio #4
ID : 5
Format : E-AC-3
Format/Info : Enhanced AC-3
Commercial name : Dolby Digital Plus
Codec ID : A_EAC3
Duration : 25 min 1 s
Bit rate mode : Constant
Bit rate : 640 kb/s
Channel(s) : 6 channels
Channel layout : L R C LFE Ls Rs
Sampling rate : 48.0 kHz
Frame rate : 31.250 FPS (1536 SPF)
Compression mode : Lossy
Delay relative to video : 1 s 8 ms
Stream size : 115 MiB (5%)
Language : English
Service kind : Complete Main
Default : No
Forced : No

Audio #5
ID : 6
Format : E-AC-3
Format/Info : Enhanced AC-3
Commercial name : Dolby Digital Plus
Codec ID : A_EAC3
Duration : 25 min 1 s
Bit rate mode : Constant
Bit rate : 640 kb/s
Channel(s) : 6 channels
Channel layout : L R C LFE Ls Rs
Sampling rate : 48.0 kHz
Frame rate : 31.250 FPS (1536 SPF)
Compression mode : Lossy
Delay relative to video : 1 s 8 ms
Stream size : 115 MiB (5%)
Title : Latin American
Language : Spanish
Service kind : Complete Main
Default : No
Forced : No

Audio #6
ID : 7
Format : E-AC-3
Format/Info : Enhanced AC-3
Commercial name : Dolby Digital Plus
Codec ID : A_EAC3
Duration : 25 min 1 s
Bit rate mode : Constant
Bit rate : 640 kb/s
Channel(s) : 6 channels
Channel layout : L R C LFE Ls Rs
Sampling rate : 48.0 kHz
Frame rate : 31.250 FPS (1536 SPF)
Compression mode : Lossy
Delay relative to video : 1 s 8 ms
Stream size : 115 MiB (5%)
Title : European
Language : Spanish
Service kind : Complete Main
Default : No
Forced : No

Audio #7
ID : 8
Format : E-AC-3
Format/Info : Enhanced AC-3
Commercial name : Dolby Digital Plus
Codec ID : A_EAC3
Duration : 25 min 1 s
Bit rate mode : Constant
Bit rate : 640 kb/s
Channel(s) : 6 channels
Channel layout : L R C LFE Ls Rs
Sampling rate : 48.0 kHz
Frame rate : 31.250 FPS (1536 SPF)
Compression mode : Lossy
Delay relative to video : 1 s 8 ms
Stream size : 115 MiB (5%)
Language : French
Service kind : Complete Main
Default : No
Forced : No

Audio #8
ID : 9
Format : E-AC-3
Format/Info : Enhanced AC-3
Commercial name : Dolby Digital Plus
Codec ID : A_EAC3
Duration : 25 min 1 s
Bit rate mode : Constant
Bit rate : 640 kb/s
Channel(s) : 6 channels
Channel layout : L R C LFE Ls Rs
Sampling rate : 48.0 kHz
Frame rate : 31.250 FPS (1536 SPF)
Compression mode : Lossy
Delay relative to video : 1 s 8 ms
Stream size : 115 MiB (5%)
Language : Hindi
Service kind : Complete Main
Default : No
Forced : No

Audio #9
ID : 10
Format : E-AC-3
Format/Info : Enhanced AC-3
Commercial name : Dolby Digital Plus
Codec ID : A_EAC3
Duration : 25 min 1 s
Bit rate mode : Constant
Bit rate : 640 kb/s
Channel(s) : 6 channels
Channel layout : L R C LFE Ls Rs
Sampling rate : 48.0 kHz
Frame rate : 31.250 FPS (1536 SPF)
Compression mode : Lossy
Delay relative to video : 1 s 8 ms
Stream size : 115 MiB (5%)
Language : Indonesian
Service kind : Complete Main
Default : No
Forced : No

Audio #10
ID : 11
Format : E-AC-3
Format/Info : Enhanced AC-3
Commercial name : Dolby Digital Plus
Codec ID : A_EAC3
Duration : 25 min 1 s
Bit rate mode : Constant
Bit rate : 640 kb/s
Channel(s) : 6 channels
Channel layout : L R C LFE Ls Rs
Sampling rate : 48.0 kHz
Frame rate : 31.250 FPS (1536 SPF)
Compression mode : Lossy
Delay relative to video : 1 s 8 ms
Stream size : 115 MiB (5%)
Language : Italian
Service kind : Complete Main
Default : No
Forced : No

Audio #11
ID : 12
Format : E-AC-3
Format/Info : Enhanced AC-3
Commercial name : Dolby Digital Plus
Codec ID : A_EAC3
Duration : 25 min 1 s
Bit rate mode : Constant
Bit rate : 640 kb/s
Channel(s) : 6 channels
Channel layout : L R C LFE Ls Rs
Sampling rate : 48.0 kHz
Frame rate : 31.250 FPS (1536 SPF)
Compression mode : Lossy
Delay relative to video : 1 s 8 ms
Stream size : 115 MiB (5%)
Title : Brazilian
Language : Portuguese
Service kind : Complete Main
Default : No
Forced : No

Audio #12
ID : 13
Format : E-AC-3
Format/Info : Enhanced AC-3
Commercial name : Dolby Digital Plus
Codec ID : A_EAC3
Duration : 25 min 1 s
Bit rate mode : Constant
Bit rate : 640 kb/s
Channel(s) : 6 channels
Channel layout : L R C LFE Ls Rs
Sampling rate : 48.0 kHz
Frame rate : 31.250 FPS (1536 SPF)
Compression mode : Lossy
Delay relative to video : 1 s 8 ms
Stream size : 115 MiB (5%)
Language : Thai
Service kind : Complete Main
Default : No
Forced : No

Text #1
ID : 14
Format : UTF-8
Codec ID : S_TEXT/UTF8
Codec ID/Info : UTF-8 Plain Text
Duration : 24 min 59 s
Bit rate : 97 b/s
Frame rate : 0.344 FPS
Count of elements : 515
Stream size : 17.8 KiB (0%)
Language : Japanese
Default : No
Forced : No

Text #2
ID : 15
Format : UTF-8
Codec ID : S_TEXT/UTF8
Codec ID/Info : UTF-8 Plain Text
Duration : 24 min 59 s
Bit rate : 97 b/s
Frame rate : 0.344 FPS
Count of elements : 515
Stream size : 17.9 KiB (0%)
Title : SDH
Language : Japanese
Default : No
Forced : No

Text #3
ID : 16
Format : UTF-8
Codec ID : S_TEXT/UTF8
Codec ID/Info : UTF-8 Plain Text
Duration : 13 min 31 s
Bit rate : 2 b/s
Frame rate : 0.007 FPS
Count of elements : 6
Stream size : 291 Bytes (0%)
Title : Forced
Language : Arabic
Default : No
Forced : Yes

Text #4
ID : 17
Format : UTF-8
Codec ID : S_TEXT/UTF8
Codec ID/Info : UTF-8 Plain Text
Duration : 21 min 9 s
Bit rate : 0 b/s
Frame rate : 0.006 FPS
Count of elements : 7
Stream size : 147 Bytes (0%)
Title : Forced
Language : German
Default : No
Forced : Yes

Text #5
ID : 18
Format : UTF-8
Codec ID : S_TEXT/UTF8
Codec ID/Info : UTF-8 Plain Text
Duration : 21 min 10 s
Bit rate : 0 b/s
Frame rate : 0.006 FPS
Count of elements : 7
Stream size : 151 Bytes (0%)
Title : European (Forced)
Language : Spanish
Default : No
Forced : Yes

Text #6
ID : 19
Format : UTF-8
Codec ID : S_TEXT/UTF8
Codec ID/Info : UTF-8 Plain Text
Duration : 21 min 10 s
Bit rate : 0 b/s
Frame rate : 0.004 FPS
Count of elements : 5
Stream size : 149 Bytes (0%)
Title : Forced
Language : French
Default : No
Forced : Yes

Text #7
ID : 20
Format : UTF-8
Codec ID : S_TEXT/UTF8
Codec ID/Info : UTF-8 Plain Text
Duration : 13 min 31 s
Bit rate : 1 b/s
Frame rate : 0.007 FPS
Count of elements : 6
Stream size : 138 Bytes (0%)
Title : Latin (Forced)
Language : Hindi
Default : No
Forced : Yes

Text #8
ID : 21
Format : UTF-8
Codec ID : S_TEXT/UTF8
Codec ID/Info : UTF-8 Plain Text
Duration : 21 min 10 s
Bit rate : 1 b/s
Frame rate : 0.006 FPS
Count of elements : 7
Stream size : 160 Bytes (0%)
Title : Forced
Language : Indonesian
Default : No
Forced : Yes

Text #9
ID : 22
Format : UTF-8
Codec ID : S_TEXT/UTF8
Codec ID/Info : UTF-8 Plain Text
Duration : 13 min 31 s
Bit rate : 0 b/s
Frame rate : 0.005 FPS
Count of elements : 4
Stream size : 100 Bytes (0%)
Title : Forced
Language : Italian
Default : No
Forced : Yes

Text #10
ID : 23
Format : UTF-8
Codec ID : S_TEXT/UTF8
Codec ID/Info : UTF-8 Plain Text
Duration : 13 min 31 s
Bit rate : 3 b/s
Frame rate : 0.007 FPS
Count of elements : 6
Stream size : 370 Bytes (0%)
Title : Forced
Language : Thai
Default : No
Forced : Yes

Text #11
ID : 24
Format : UTF-8
Codec ID : S_TEXT/UTF8
Codec ID/Info : UTF-8 Plain Text
Duration : 24 min 39 s
Bit rate : 112 b/s
Frame rate : 0.294 FPS
Count of elements : 435
Stream size : 20.4 KiB (0%)
Language : Arabic
Default : No
Forced : No

Text #12
ID : 25
Format : UTF-8
Codec ID : S_TEXT/UTF8
Codec ID/Info : UTF-8 Plain Text
Duration : 24 min 38 s
Bit rate : 66 b/s
Frame rate : 0.294 FPS
Count of elements : 435
Stream size : 12.0 KiB (0%)
Language : Czech
Default : No
Forced : No

Text #13
ID : 26
Format : UTF-8
Codec ID : S_TEXT/UTF8
Codec ID/Info : UTF-8 Plain Text
Duration : 24 min 38 s
Bit rate : 69 b/s
Frame rate : 0.294 FPS
Count of elements : 435
Stream size : 12.6 KiB (0%)
Language : Danish
Default : No
Forced : No

Text #14
ID : 27
Format : UTF-8
Codec ID : S_TEXT/UTF8
Codec ID/Info : UTF-8 Plain Text
Duration : 24 min 38 s
Bit rate : 66 b/s
Frame rate : 0.294 FPS
Count of elements : 435
Stream size : 11.9 KiB (0%)
Language : German
Default : No
Forced : No

Text #15
ID : 28
Format : UTF-8
Codec ID : S_TEXT/UTF8
Codec ID/Info : UTF-8 Plain Text
Duration : 24 min 36 s
Bit rate : 119 b/s
Frame rate : 0.290 FPS
Count of elements : 428
Stream size : 21.6 KiB (0%)
Language : Greek
Default : No
Forced : No

Text #16
ID : 29
Format : UTF-8
Codec ID : S_TEXT/UTF8
Codec ID/Info : UTF-8 Plain Text
Duration : 24 min 39 s
Bit rate : 73 b/s
Frame rate : 0.294 FPS
Count of elements : 435
Stream size : 13.2 KiB (0%)
Language : English
Default : No
Forced : No

Text #17
ID : 30
Format : UTF-8
Codec ID : S_TEXT/UTF8
Codec ID/Info : UTF-8 Plain Text
Duration : 23 min 31 s
Bit rate : 106 b/s
Frame rate : 0.382 FPS
Count of elements : 539
Stream size : 18.4 KiB (0%)
Title : SDH
Language : English
Default : No
Forced : No

Text #18
ID : 31
Format : UTF-8
Codec ID : S_TEXT/UTF8
Codec ID/Info : UTF-8 Plain Text
Duration : 24 min 39 s
Bit rate : 72 b/s
Frame rate : 0.293 FPS
Count of elements : 434
Stream size : 13.0 KiB (0%)
Title : Latin American
Language : Spanish
Default : No
Forced : No

Text #19
ID : 32
Format : UTF-8
Codec ID : S_TEXT/UTF8
Codec ID/Info : UTF-8 Plain Text
Duration : 24 min 39 s
Bit rate : 81 b/s
Frame rate : 0.287 FPS
Count of elements : 425
Stream size : 14.7 KiB (0%)
Title : European
Language : Spanish
Default : No
Forced : No

Text #20
ID : 33
Format : UTF-8
Codec ID : S_TEXT/UTF8
Codec ID/Info : UTF-8 Plain Text
Duration : 24 min 38 s
Bit rate : 72 b/s
Frame rate : 0.294 FPS
Count of elements : 435
Stream size : 13.1 KiB (0%)
Language : Finnish
Default : No
Forced : No

Text #21
ID : 34
Format : UTF-8
Codec ID : S_TEXT/UTF8
Codec ID/Info : UTF-8 Plain Text
Duration : 24 min 38 s
Bit rate : 77 b/s
Frame rate : 0.300 FPS
Count of elements : 443
Stream size : 14.0 KiB (0%)
Language : fil
Default : No
Forced : No

Text #22
ID : 35
Format : UTF-8
Codec ID : S_TEXT/UTF8
Codec ID/Info : UTF-8 Plain Text
Duration : 24 min 39 s
Bit rate : 74 b/s
Frame rate : 0.294 FPS
Count of elements : 435
Stream size : 13.5 KiB (0%)
Language : French
Default : No
Forced : No

Text #23
ID : 36
Format : UTF-8
Codec ID : S_TEXT/UTF8
Codec ID/Info : UTF-8 Plain Text
Duration : 24 min 39 s
Bit rate : 104 b/s
Frame rate : 0.294 FPS
Count of elements : 435
Stream size : 18.8 KiB (0%)
Language : Hebrew
Default : No
Forced : No

Text #24
ID : 37
Format : UTF-8
Codec ID : S_TEXT/UTF8
Codec ID/Info : UTF-8 Plain Text
Duration : 24 min 38 s
Bit rate : 170 b/s
Frame rate : 0.294 FPS
Count of elements : 435
Stream size : 30.8 KiB (0%)
Language : Hindi
Default : No
Forced : No

Text #25
ID : 38
Format : UTF-8
Codec ID : S_TEXT/UTF8
Codec ID/Info : UTF-8 Plain Text
Duration : 24 min 39 s
Bit rate : 61 b/s
Frame rate : 0.294 FPS
Count of elements : 435
Stream size : 11.2 KiB (0%)
Language : Croatian
Default : No
Forced : No

Text #26
ID : 39
Format : UTF-8
Codec ID : S_TEXT/UTF8
Codec ID/Info : UTF-8 Plain Text
Duration : 24 min 39 s
Bit rate : 69 b/s
Frame rate : 0.294 FPS
Count of elements : 435
Stream size : 12.6 KiB (0%)
Language : Hungarian
Default : No
Forced : No

Text #27
ID : 40
Format : UTF-8
Codec ID : S_TEXT/UTF8
Codec ID/Info : UTF-8 Plain Text
Duration : 24 min 38 s
Bit rate : 71 b/s
Frame rate : 0.295 FPS
Count of elements : 436
Stream size : 12.9 KiB (0%)
Language : Indonesian
Default : No
Forced : No

Text #28
ID : 41
Format : UTF-8
Codec ID : S_TEXT/UTF8
Codec ID/Info : UTF-8 Plain Text
Duration : 24 min 38 s
Bit rate : 73 b/s
Frame rate : 0.293 FPS
Count of elements : 433
Stream size : 13.2 KiB (0%)
Language : Italian
Default : No
Forced : No

Text #29
ID : 42
Format : UTF-8
Codec ID : S_TEXT/UTF8
Codec ID/Info : UTF-8 Plain Text
Duration : 24 min 39 s
Bit rate : 72 b/s
Frame rate : 0.287 FPS
Count of elements : 424
Stream size : 13.0 KiB (0%)
Language : Korean
Default : No
Forced : No

Text #30
ID : 43
Format : UTF-8
Codec ID : S_TEXT/UTF8
Codec ID/Info : UTF-8 Plain Text
Duration : 24 min 39 s
Bit rate : 73 b/s
Frame rate : 0.294 FPS
Count of elements : 435
Stream size : 13.2 KiB (0%)
Language : Malay
Default : No
Forced : No

Text #31
ID : 44
Format : UTF-8
Codec ID : S_TEXT/UTF8
Codec ID/Info : UTF-8 Plain Text
Duration : 24 min 38 s
Bit rate : 71 b/s
Frame rate : 0.294 FPS
Count of elements : 435
Stream size : 12.8 KiB (0%)
Language : Norwegian Bokmal
Default : No
Forced : No

Text #32
ID : 45
Format : UTF-8
Codec ID : S_TEXT/UTF8
Codec ID/Info : UTF-8 Plain Text
Duration : 24 min 39 s
Bit rate : 69 b/s
Frame rate : 0.294 FPS
Count of elements : 435
Stream size : 12.5 KiB (0%)
Language : Dutch
Default : No
Forced : No

Text #33
ID : 46
Format : UTF-8
Codec ID : S_TEXT/UTF8
Codec ID/Info : UTF-8 Plain Text
Duration : 24 min 36 s
Bit rate : 67 b/s
Frame rate : 0.294 FPS
Count of elements : 434
Stream size : 12.1 KiB (0%)
Language : Polish
Default : No
Forced : No

Text #34
ID : 47
Format : UTF-8
Codec ID : S_TEXT/UTF8
Codec ID/Info : UTF-8 Plain Text
Duration : 24 min 39 s
Bit rate : 71 b/s
Frame rate : 0.293 FPS
Count of elements : 434
Stream size : 12.9 KiB (0%)
Title : Brazilian
Language : Portuguese
Default : No
Forced : No

Text #35
ID : 48
Format : UTF-8
Codec ID : S_TEXT/UTF8
Codec ID/Info : UTF-8 Plain Text
Duration : 24 min 39 s
Bit rate : 71 b/s
Frame rate : 0.293 FPS
Count of elements : 434
Stream size : 12.8 KiB (0%)
Title : European
Language : Portuguese
Default : No
Forced : No

Text #36
ID : 49
Format : UTF-8
Codec ID : S_TEXT/UTF8
Codec ID/Info : UTF-8 Plain Text
Duration : 24 min 39 s
Bit rate : 70 b/s
Frame rate : 0.294 FPS
Count of elements : 435
Stream size : 12.8 KiB (0%)
Language : Romanian
Default : No
Forced : No

Text #37
ID : 50
Format : UTF-8
Codec ID : S_TEXT/UTF8
Codec ID/Info : UTF-8 Plain Text
Duration : 24 min 39 s
Bit rate : 70 b/s
Frame rate : 0.294 FPS
Count of elements : 435
Stream size : 12.7 KiB (0%)
Language : Swedish
Default : No
Forced : No

Text #38
ID : 51
Format : UTF-8
Codec ID : S_TEXT/UTF8
Codec ID/Info : UTF-8 Plain Text
Duration : 24 min 38 s
Bit rate : 173 b/s
Frame rate : 0.296 FPS
Count of elements : 437
Stream size : 31.2 KiB (0%)
Language : Thai
Default : No
Forced : No

Text #39
ID : 52
Format : UTF-8
Codec ID : S_TEXT/UTF8
Codec ID/Info : UTF-8 Plain Text
Duration : 24 min 39 s
Bit rate : 71 b/s
Frame rate : 0.294 FPS
Count of elements : 435
Stream size : 12.9 KiB (0%)
Language : Turkish
Default : No
Forced : No

Text #40
ID : 53
Format : UTF-8
Codec ID : S_TEXT/UTF8
Codec ID/Info : UTF-8 Plain Text
Duration : 24 min 39 s
Bit rate : 120 b/s
Frame rate : 0.294 FPS
Count of elements : 435
Stream size : 21.8 KiB (0%)
Language : Ukrainian
Default : No
Forced : No

Text #41
ID : 54
Format : UTF-8
Codec ID : S_TEXT/UTF8
Codec ID/Info : UTF-8 Plain Text
Duration : 24 min 39 s
Bit rate : 92 b/s
Frame rate : 0.292 FPS
Count of elements : 432
Stream size : 16.7 KiB (0%)
Language : Vietnamese
Default : No
Forced : No

Text #42
ID : 55
Format : UTF-8
Codec ID : S_TEXT/UTF8
Codec ID/Info : UTF-8 Plain Text
Duration : 24 min 39 s
Bit rate : 65 b/s
Frame rate : 0.294 FPS
Count of elements : 435
Stream size : 11.9 KiB (0%)
Title : Simplified
Language : Chinese
Default : No
Forced : No

Text #43
ID : 56
Format : UTF-8
Codec ID : S_TEXT/UTF8
Codec ID/Info : UTF-8 Plain Text
Duration : 24 min 39 s
Bit rate : 66 b/s
Frame rate : 0.294 FPS
Count of elements : 435
Stream size : 12.1 KiB (0%)
Title : Traditional
Language : Chinese
Default : No
Forced : No

Text #44
ID : 57
Format : UTF-8
Codec ID : S_TEXT/UTF8
Codec ID/Info : UTF-8 Plain Text
Duration : 23 min 5 s
Bit rate : 93 b/s
Frame rate : 0.346 FPS
Count of elements : 480
Stream size : 15.9 KiB (0%)
Title : Dub
Language : English
Default : No
Forced : No

Text #45
ID : 58
Format : UTF-8
Codec ID : S_TEXT/UTF8
Codec ID/Info : UTF-8 Plain Text
Duration : 23 min 5 s
Bit rate : 85 b/s
Frame rate : 0.269 FPS
Count of elements : 372
Stream size : 14.4 KiB (0%)
Title : European (Dub)
Language : Spanish
Default : No
Forced : No

Text #46
ID : 59
Format : UTF-8
Codec ID : S_TEXT/UTF8
Codec ID/Info : UTF-8 Plain Text
Duration : 23 min 5 s
Bit rate : 107 b/s
Frame rate : 0.357 FPS
Count of elements : 495
Stream size : 18.2 KiB (0%)
Title : Dub
Language : French
Default : No
Forced : No

Text #47
ID : 60
Format : UTF-8
Codec ID : S_TEXT/UTF8
Codec ID/Info : UTF-8 Plain Text
Duration : 23 min 5 s
Bit rate : 90 b/s
Frame rate : 0.274 FPS
Count of elements : 380
Stream size : 15.2 KiB (0%)
Title : Dub
Language : Indonesian
Default : No
Forced : No

Text #48
ID : 61
Format : UTF-8
Codec ID : S_TEXT/UTF8
Codec ID/Info : UTF-8 Plain Text
Duration : 21 min 55 s
Bit rate : 98 b/s
Frame rate : 0.301 FPS
Count of elements : 396
Stream size : 15.8 KiB (0%)
Title : Dub
Language : Italian
Default : No
Forced : No

Menu
00:00:01.001 : en:Intro
00:01:31.008 : en:Scene 1
00:23:31.078 : en:Credits





Delicious in Dungeon - S01E16 - MULTi 1080p WEB H 264 -NanDesuKa (DSNP


Delicious in Dungeon - S01E16 - MULTi 1080p WEB H 264 -NanDesuKa (DSNP


Delicious in Dungeon - S01E16 - MULTi 1080p WEB H 264 -NanDesuKa (DSNP


Delicious in Dungeon - S01E16 - MULTi 1080p WEB H 264 -NanDesuKa (DSNP