Tags
Language
Tags
May 2024
Su Mo Tu We Th Fr Sa
28 29 30 1 2 3 4
5 6 7 8 9 10 11
12 13 14 15 16 17 18
19 20 21 22 23 24 25
26 27 28 29 30 31 1

Delicious in Dungeon S01E09 Episode 9 Tentacles Stew 1080p NF WEB DL x264 (DDP 5 1) MSubs ToonsHub

Posted By: Otaku
Delicious in Dungeon S01E09 Episode 9 Tentacles Stew 1080p NF WEB DL x264  (DDP 5 1) MSubs ToonsHub

Delicious in Dungeon S01E09 Episode 9 Tentacles Stew 1080p NF WEB DL x264 (DDP 5 1) MSubs ToonsHub
MKV | 1920x1080 | Español / Italiano / हिन्दी / Português / ภาษาไทย / Français / English / Bahasa Indonesia / 日本語 / Deutsch / العربية | H264 @ 4611 kbps | E-AC-3 @ 640.0 kbps | 27 min 41 s | 2.43 GiB
Subtitles: Čeština, हिन्दी, ภาษาไทย, עברית, Türkçe, Suomi, 中文, Nederlands, Italiano, Polski, tiếng Việt, Français, Bokmål, Svenska, Română, Українська, English, Bahasa Indonesia, Ελληνικά, 日本語, Deutsch, Español, 한국어, Português, Magyar, Dansk, العربية, Hrvatski



Delicious in Dungeon S01E09 Episode 9- Tentacles-Stew 1080p NF WEB-DL x264 [Multi-Audio] (DDP 5.1) MSubs_ToonsHub_.mkv (2.4 GB)



General
Unique ID : 109595537958459535528700306247467649208 (0x527355348375279B0794AC49F3EBC8B8)
Complete name : ./Delicious in Dungeon S01E09 Episode 9- Tentacles-Stew 1080p NF WEB-DL x264 [Multi-Audio] (DDP 5.1) MSubs_ToonsHub_.mkv
Format : Matroska
Format version : Version 4
File size : 2.43 GiB
Duration : 27 min 41 s
Overall bit rate mode : Variable
Overall bit rate : 12.5 Mb/s
Writing application : Lavf58.29.100
Writing library : Lavf58.29.100
ErrorDetectionType : Per level 1

Video
ID : 1
Format : AVC
Format/Info : Advanced Video Codec
Format profile : Main@L4
Format settings : CABAC / 3 Ref Frames
Format settings, CABAC : Yes
Format settings, Reference frames : 3 frames
Codec ID : V_MPEG4/ISO/AVC
Duration : 27 min 41 s
Bit rate mode : Variable
Bit rate : 4 612 kb/s
Nominal bit rate : 5 000 kb/s
Maximum bit rate : 7 500 kb/s
Width : 1 920 pixels
Height : 1 080 pixels
Display aspect ratio : 16:9
Frame rate mode : Constant
Frame rate : 23.976 (24000/1001) FPS
Color space : YUV
Chroma subsampling : 4:2:0
Bit depth : 8 bits
Scan type : Progressive
Bits/(Pixel*Frame) : 0.093
Stream size : 913 MiB (37%)
Title : by ToonsHub
Writing library : x264 core 148 r2727 7d026e8
Encoding settings : cabac=1 / ref=3 / deblock=1:0:0 / analyse=0x1:0x111 / me=umh / subme=10 / psy=1 / psy_rd=1.00:0.00 / mixed_ref=1 / me_range=24 / chroma_me=1 / trellis=2 / 8x8dct=0 / cqm=0 / deadzone=21,11 / fast_pskip=1 / chroma_qp_offset=-2 / threads=6 / lookahead_threads=1 / sliced_threads=0 / nr=0 / decimate=1 / interlaced=0 / bluray_compat=0 / stitchable=1 / constrained_intra=0 / bframes=2 / b_pyramid=0 / b_adapt=2 / b_bias=0 / direct=3 / weightb=1 / open_gop=0 / weightp=2 / keyint=240 / keyint_min=121 / scenecut=0 / intra_refresh=0 / rc_lookahead=48 / rc=2pass / mbtree=1 / bitrate=5000 / ratetol=1.0 / qcomp=0.50 / qpmin=6 / qpmax=51 / qpstep=4 / cplxblur=20.0 / qblur=0.5 / vbv_maxrate=7500 / vbv_bufsize=10000 / nal_hrd=vbr / filler=0 / ip_ratio=1.40 / aq=1:1.00
Default : Yes
Forced : No

Audio #1
ID : 2
Format : E-AC-3
Format/Info : Enhanced AC-3
Commercial name : Dolby Digital Plus
Codec ID : A_EAC3
Duration : 27 min 41 s
Bit rate mode : Constant
Bit rate : 640 kb/s
Channel(s) : 6 channels
Channel layout : L R C LFE Ls Rs
Sampling rate : 48.0 kHz
Frame rate : 31.250 FPS (1536 SPF)
Bit depth : 32 bits
Compression mode : Lossy
Stream size : 127 MiB (5%)
Title : [ToonsHub] Hindi
Language : Hindi
Service kind : Complete Main
Default : Yes
Forced : No

Audio #2
ID : 3
Format : E-AC-3
Format/Info : Enhanced AC-3
Commercial name : Dolby Digital Plus
Codec ID : A_EAC3
Duration : 27 min 41 s
Bit rate mode : Constant
Bit rate : 640 kb/s
Channel(s) : 6 channels
Channel layout : L R C LFE Ls Rs
Sampling rate : 48.0 kHz
Frame rate : 31.250 FPS (1536 SPF)
Bit depth : 32 bits
Compression mode : Lossy
Stream size : 127 MiB (5%)
Title : [ToonsHub] English
Language : English
Service kind : Complete Main
Default : Yes
Forced : No

Audio #3
ID : 4
Format : E-AC-3
Format/Info : Enhanced AC-3
Commercial name : Dolby Digital Plus
Codec ID : A_EAC3
Duration : 27 min 41 s
Bit rate mode : Constant
Bit rate : 640 kb/s
Channel(s) : 6 channels
Channel layout : L R C LFE Ls Rs
Sampling rate : 48.0 kHz
Frame rate : 31.250 FPS (1536 SPF)
Bit depth : 32 bits
Compression mode : Lossy
Stream size : 127 MiB (5%)
Title : [ToonsHub] Japanese
Language : Japanese
Service kind : Complete Main
Default : Yes
Forced : No

Audio #4
ID : 5
Format : E-AC-3
Format/Info : Enhanced AC-3
Commercial name : Dolby Digital Plus
Codec ID : A_EAC3
Duration : 27 min 41 s
Bit rate mode : Constant
Bit rate : 640 kb/s
Channel(s) : 6 channels
Channel layout : L R C LFE Ls Rs
Sampling rate : 48.0 kHz
Frame rate : 31.250 FPS (1536 SPF)
Bit depth : 32 bits
Compression mode : Lossy
Stream size : 127 MiB (5%)
Title : [ToonsHub] Arabic
Language : Arabic
Service kind : Complete Main
Default : Yes
Forced : No

Audio #5
ID : 6
Format : E-AC-3
Format/Info : Enhanced AC-3
Commercial name : Dolby Digital Plus
Codec ID : A_EAC3
Duration : 27 min 41 s
Bit rate mode : Constant
Bit rate : 640 kb/s
Channel(s) : 6 channels
Channel layout : L R C LFE Ls Rs
Sampling rate : 48.0 kHz
Frame rate : 31.250 FPS (1536 SPF)
Bit depth : 32 bits
Compression mode : Lossy
Stream size : 127 MiB (5%)
Title : [ToonsHub] German
Language : German
Service kind : Complete Main
Default : Yes
Forced : No

Audio #6
ID : 7
Format : E-AC-3
Format/Info : Enhanced AC-3
Commercial name : Dolby Digital Plus
Codec ID : A_EAC3
Duration : 27 min 41 s
Bit rate mode : Constant
Bit rate : 640 kb/s
Channel(s) : 6 channels
Channel layout : L R C LFE Ls Rs
Sampling rate : 48.0 kHz
Frame rate : 31.250 FPS (1536 SPF)
Bit depth : 32 bits
Compression mode : Lossy
Stream size : 127 MiB (5%)
Title : [ToonsHub] Spanish (Spain)
Language : Spanish
Service kind : Complete Main
Default : Yes
Forced : No

Audio #7
ID : 8
Format : E-AC-3
Format/Info : Enhanced AC-3
Commercial name : Dolby Digital Plus
Codec ID : A_EAC3
Duration : 27 min 41 s
Bit rate mode : Constant
Bit rate : 640 kb/s
Channel(s) : 6 channels
Channel layout : L R C LFE Ls Rs
Sampling rate : 48.0 kHz
Frame rate : 31.250 FPS (1536 SPF)
Bit depth : 32 bits
Compression mode : Lossy
Stream size : 127 MiB (5%)
Title : [ToonsHub] Spanish
Language : Spanish
Service kind : Complete Main
Default : Yes
Forced : No

Audio #8
ID : 9
Format : E-AC-3
Format/Info : Enhanced AC-3
Commercial name : Dolby Digital Plus
Codec ID : A_EAC3
Duration : 27 min 41 s
Bit rate mode : Constant
Bit rate : 640 kb/s
Channel(s) : 6 channels
Channel layout : L R C LFE Ls Rs
Sampling rate : 48.0 kHz
Frame rate : 31.250 FPS (1536 SPF)
Bit depth : 32 bits
Compression mode : Lossy
Stream size : 127 MiB (5%)
Title : [ToonsHub] French
Language : French
Service kind : Complete Main
Default : Yes
Forced : No

Audio #9
ID : 10
Format : E-AC-3
Format/Info : Enhanced AC-3
Commercial name : Dolby Digital Plus
Codec ID : A_EAC3
Duration : 27 min 41 s
Bit rate mode : Constant
Bit rate : 640 kb/s
Channel(s) : 6 channels
Channel layout : L R C LFE Ls Rs
Sampling rate : 48.0 kHz
Frame rate : 31.250 FPS (1536 SPF)
Bit depth : 32 bits
Compression mode : Lossy
Stream size : 127 MiB (5%)
Title : [ToonsHub] Indonesian
Language : Indonesian
Service kind : Complete Main
Default : Yes
Forced : No

Audio #10
ID : 11
Format : E-AC-3
Format/Info : Enhanced AC-3
Commercial name : Dolby Digital Plus
Codec ID : A_EAC3
Duration : 27 min 41 s
Bit rate mode : Constant
Bit rate : 640 kb/s
Channel(s) : 6 channels
Channel layout : L R C LFE Ls Rs
Sampling rate : 48.0 kHz
Frame rate : 31.250 FPS (1536 SPF)
Bit depth : 32 bits
Compression mode : Lossy
Stream size : 127 MiB (5%)
Title : [ToonsHub] Italian
Language : Italian
Service kind : Complete Main
Default : Yes
Forced : No

Audio #11
ID : 12
Format : E-AC-3
Format/Info : Enhanced AC-3
Commercial name : Dolby Digital Plus
Codec ID : A_EAC3
Duration : 27 min 41 s
Bit rate mode : Constant
Bit rate : 640 kb/s
Channel(s) : 6 channels
Channel layout : L R C LFE Ls Rs
Sampling rate : 48.0 kHz
Frame rate : 31.250 FPS (1536 SPF)
Bit depth : 32 bits
Compression mode : Lossy
Stream size : 127 MiB (5%)
Title : [ToonsHub] Portuguese (Brazil)
Language : Portuguese
Service kind : Complete Main
Default : Yes
Forced : No

Audio #12
ID : 13
Format : E-AC-3
Format/Info : Enhanced AC-3
Commercial name : Dolby Digital Plus
Codec ID : A_EAC3
Duration : 27 min 41 s
Bit rate mode : Constant
Bit rate : 640 kb/s
Channel(s) : 6 channels
Channel layout : L R C LFE Ls Rs
Sampling rate : 48.0 kHz
Frame rate : 31.250 FPS (1536 SPF)
Bit depth : 32 bits
Compression mode : Lossy
Stream size : 127 MiB (5%)
Title : [ToonsHub] Thai
Language : Thai
Service kind : Complete Main
Default : Yes
Forced : No

Text #1
ID : 14
Format : D_WEBVTT/SUBTITLES
Codec ID : D_WEBVTT/SUBTITLES
Title : [ToonsHub] Arabic
Language : Arabic
Default : No
Forced : No

Text #2
ID : 15
Format : D_WEBVTT/SUBTITLES
Codec ID : D_WEBVTT/SUBTITLES
Title : [ToonsHub] Czech
Language : Czech
Default : No
Forced : No

Text #3
ID : 16
Format : D_WEBVTT/SUBTITLES
Codec ID : D_WEBVTT/SUBTITLES
Title : [ToonsHub] Danish
Language : Danish
Default : No
Forced : No

Text #4
ID : 17
Format : D_WEBVTT/SUBTITLES
Codec ID : D_WEBVTT/SUBTITLES
Title : [ToonsHub] German
Language : German
Default : No
Forced : No

Text #5
ID : 18
Format : D_WEBVTT/SUBTITLES
Codec ID : D_WEBVTT/SUBTITLES
Title : [ToonsHub] Greek
Language : Greek
Default : No
Forced : No

Text #6
ID : 19
Format : D_WEBVTT/SUBTITLES
Codec ID : D_WEBVTT/SUBTITLES
Title : [ToonsHub] English
Language : English
Default : No
Forced : No

Text #7
ID : 20
Format : D_WEBVTT/SUBTITLES
Codec ID : D_WEBVTT/SUBTITLES
Title : [ToonsHub] English
Language : English
Default : No
Forced : No

Text #8
ID : 21
Format : D_WEBVTT/SUBTITLES
Codec ID : D_WEBVTT/SUBTITLES
Title : [ToonsHub] Spanish (Spain)
Language : Spanish
Default : No
Forced : No

Text #9
ID : 22
Format : D_WEBVTT/SUBTITLES
Codec ID : D_WEBVTT/SUBTITLES
Title : [ToonsHub] Spanish (Spain)
Language : Spanish
Default : No
Forced : No

Text #10
ID : 23
Format : D_WEBVTT/SUBTITLES
Codec ID : D_WEBVTT/SUBTITLES
Title : [ToonsHub] Spanish
Language : Spanish
Default : No
Forced : No

Text #11
ID : 24
Format : D_WEBVTT/SUBTITLES
Codec ID : D_WEBVTT/SUBTITLES
Title : [ToonsHub] Spanish
Language : Spanish
Default : No
Forced : No

Text #12
ID : 25
Format : D_WEBVTT/SUBTITLES
Codec ID : D_WEBVTT/SUBTITLES
Title : [ToonsHub] Finnish
Language : Finnish
Default : No
Forced : No

Text #13
ID : 26
Format : D_WEBVTT/SUBTITLES
Codec ID : D_WEBVTT/SUBTITLES
Title : [ToonsHub] Filipino
Language : fil
Default : No
Forced : No

Text #14
ID : 27
Format : D_WEBVTT/SUBTITLES
Codec ID : D_WEBVTT/SUBTITLES
Title : [ToonsHub] French
Language : French
Default : No
Forced : No

Text #15
ID : 28
Format : D_WEBVTT/SUBTITLES
Codec ID : D_WEBVTT/SUBTITLES
Title : [ToonsHub] French
Language : French
Default : No
Forced : No

Text #16
ID : 29
Format : D_WEBVTT/SUBTITLES
Codec ID : D_WEBVTT/SUBTITLES
Title : [ToonsHub] Hebrew
Language : Hebrew
Default : No
Forced : No

Text #17
ID : 30
Format : D_WEBVTT/SUBTITLES
Codec ID : D_WEBVTT/SUBTITLES
Title : [ToonsHub] Hindi
Language : Hindi
Default : No
Forced : No

Text #18
ID : 31
Format : D_WEBVTT/SUBTITLES
Codec ID : D_WEBVTT/SUBTITLES
Title : [ToonsHub] Croatian
Language : Croatian
Default : No
Forced : No

Text #19
ID : 32
Format : D_WEBVTT/SUBTITLES
Codec ID : D_WEBVTT/SUBTITLES
Title : [ToonsHub] Hungarian
Language : Hungarian
Default : No
Forced : No

Text #20
ID : 33
Format : D_WEBVTT/SUBTITLES
Codec ID : D_WEBVTT/SUBTITLES
Title : [ToonsHub] Indonesian
Language : Indonesian
Default : No
Forced : No

Text #21
ID : 34
Format : D_WEBVTT/SUBTITLES
Codec ID : D_WEBVTT/SUBTITLES
Title : [ToonsHub] Indonesian
Language : Indonesian
Default : No
Forced : No

Text #22
ID : 35
Format : D_WEBVTT/SUBTITLES
Codec ID : D_WEBVTT/SUBTITLES
Title : [ToonsHub] Italian
Language : Italian
Default : No
Forced : No

Text #23
ID : 36
Format : D_WEBVTT/SUBTITLES
Codec ID : D_WEBVTT/SUBTITLES
Title : [ToonsHub] Italian
Language : Italian
Default : No
Forced : No

Text #24
ID : 37
Format : D_WEBVTT/SUBTITLES
Codec ID : D_WEBVTT/SUBTITLES
Title : [ToonsHub] Korean
Language : Korean
Default : No
Forced : No

Text #25
ID : 38
Format : D_WEBVTT/SUBTITLES
Codec ID : D_WEBVTT/SUBTITLES
Title : [ToonsHub] Malay
Language : Malay
Default : No
Forced : No

Text #26
ID : 39
Format : D_WEBVTT/SUBTITLES
Codec ID : D_WEBVTT/SUBTITLES
Title : [ToonsHub] Norwegian Bokmål
Language : Norwegian Bokmal
Default : No
Forced : No

Text #27
ID : 40
Format : D_WEBVTT/SUBTITLES
Codec ID : D_WEBVTT/SUBTITLES
Title : [ToonsHub] Dutch
Language : Dutch
Default : No
Forced : No

Text #28
ID : 41
Format : D_WEBVTT/SUBTITLES
Codec ID : D_WEBVTT/SUBTITLES
Title : [ToonsHub] Polish
Language : Polish
Default : No
Forced : No

Text #29
ID : 42
Format : D_WEBVTT/SUBTITLES
Codec ID : D_WEBVTT/SUBTITLES
Title : [ToonsHub] Portuguese (Brazil)
Language : Portuguese
Default : No
Forced : No

Text #30
ID : 43
Format : D_WEBVTT/SUBTITLES
Codec ID : D_WEBVTT/SUBTITLES
Title : [ToonsHub] Portuguese (Brazil)
Language : Portuguese
Default : No
Forced : No

Text #31
ID : 44
Format : D_WEBVTT/SUBTITLES
Codec ID : D_WEBVTT/SUBTITLES
Title : [ToonsHub] Portuguese
Language : Portuguese
Default : No
Forced : No

Text #32
ID : 45
Format : D_WEBVTT/SUBTITLES
Codec ID : D_WEBVTT/SUBTITLES
Title : [ToonsHub] Romanian
Language : Romanian
Default : No
Forced : No

Text #33
ID : 46
Format : D_WEBVTT/SUBTITLES
Codec ID : D_WEBVTT/SUBTITLES
Title : [ToonsHub] Swedish
Language : Swedish
Default : No
Forced : No

Text #34
ID : 47
Format : D_WEBVTT/SUBTITLES
Codec ID : D_WEBVTT/SUBTITLES
Title : [ToonsHub] Thai
Language : Thai
Default : No
Forced : No

Text #35
ID : 48
Format : D_WEBVTT/SUBTITLES
Codec ID : D_WEBVTT/SUBTITLES
Title : [ToonsHub] Thai
Language : Thai
Default : No
Forced : No

Text #36
ID : 49
Format : D_WEBVTT/SUBTITLES
Codec ID : D_WEBVTT/SUBTITLES
Title : [ToonsHub] Turkish
Language : Turkish
Default : No
Forced : No

Text #37
ID : 50
Format : D_WEBVTT/SUBTITLES
Codec ID : D_WEBVTT/SUBTITLES
Title : [ToonsHub] Ukrainian
Language : Ukrainian
Default : No
Forced : No

Text #38
ID : 51
Format : D_WEBVTT/SUBTITLES
Codec ID : D_WEBVTT/SUBTITLES
Title : [ToonsHub] Vietnamese
Language : Vietnamese
Default : No
Forced : No

Text #39
ID : 52
Format : D_WEBVTT/SUBTITLES
Codec ID : D_WEBVTT/SUBTITLES
Title : [ToonsHub] Chinese (Simplified)
Language : Chinese
Default : No
Forced : No

Text #40
ID : 53
Format : D_WEBVTT/SUBTITLES
Codec ID : D_WEBVTT/SUBTITLES
Title : [ToonsHub] Chinese (Traditional)
Language : Chinese
Default : No
Forced : No

Text #41
ID : 54
Format : D_WEBVTT/SUBTITLES
Codec ID : D_WEBVTT/SUBTITLES
Title : [ToonsHub] English
Language : English
Default : No
Forced : No

Text #42
ID : 55
Format : D_WEBVTT/SUBTITLES
Codec ID : D_WEBVTT/SUBTITLES
Title : [ToonsHub] Japanese
Language : Japanese
Default : No
Forced : No





Delicious in Dungeon S01E09 Episode 9 Tentacles Stew 1080p NF WEB DL x264  (DDP 5 1) MSubs ToonsHub


Delicious in Dungeon S01E09 Episode 9 Tentacles Stew 1080p NF WEB DL x264  (DDP 5 1) MSubs ToonsHub


Delicious in Dungeon S01E09 Episode 9 Tentacles Stew 1080p NF WEB DL x264  (DDP 5 1) MSubs ToonsHub


Delicious in Dungeon S01E09 Episode 9 Tentacles Stew 1080p NF WEB DL x264  (DDP 5 1) MSubs ToonsHub