Tags
Language
Tags
May 2024
Su Mo Tu We Th Fr Sa
28 29 30 1 2 3 4
5 6 7 8 9 10 11
12 13 14 15 16 17 18
19 20 21 22 23 24 25
26 27 28 29 30 31 1

Delicious in Dungeon S01E10 Giant Frogs-Aboveground 1080p DSNP WEB-DL x264 (DDP 5 1) MSubs ToonsHub

Posted By: Otaku
Delicious in Dungeon S01E10 Giant Frogs-Aboveground 1080p DSNP WEB-DL x264  (DDP 5 1) MSubs ToonsHub

Delicious in Dungeon S01E10 Giant Frogs-Aboveground 1080p DSNP WEB-DL x264 (DDP 5 1) MSubs ToonsHub
MKV | 1920x1080 | Français / Português / Deutsch / Italiano / Bahasa Indonesia / 日本語 / العربية / हिन्दी / ภาษาไทย / Español / English | H264 @ 4082 kbps | E-AC-3 @ 640.0 kbps | 25 min 2 s | 2.06 GiB
Subtitles: Suomi, 日本語, Svenska, Português, Bahasa Indonesia, हिन्दी, Magyar, Español, 한국어, English, Čeština, tiếng Việt, Polski, Deutsch, العربية, Hrvatski, עברית, 中文, Nederlands, Українська, Română, Ελληνικά, Français, Bokmål, Italiano, Türkçe, ภาษาไทย, Dansk



Delicious in Dungeon S01E10 Giant Frogs-Aboveground 1080p DSNP WEB-DL x264 [Multi-Audio] (DDP 5.1) MSubs_ToonsHub_.mkv (2.1 GB)



General
Unique ID : 305638606730785125084077683321520747340 (0xE5EFDABF9E40C45CA7BE70FA2227734C)
Complete name : ./Delicious in Dungeon S01E10 Giant Frogs-Aboveground 1080p DSNP WEB-DL x264 [Multi-Audio] (DDP 5.1) MSubs_ToonsHub_.mkv
Format : Matroska
Format version : Version 4
File size : 2.06 GiB
Duration : 25 min 2 s
Overall bit rate mode : Variable
Overall bit rate : 11.8 Mb/s
Encoded date : UTC 2024-03-10 09:16:30
Writing application : mkvmerge v82.0 ('I'm The President') 64-bit
Writing library : libebml v1.4.5 + libmatroska v1.7.1

Video
ID : 1
Format : AVC
Format/Info : Advanced Video Codec
Format profile : High@L4
Format settings : CABAC / 4 Ref Frames
Format settings, CABAC : Yes
Format settings, Reference frames : 4 frames
Codec ID : V_MPEG4/ISO/AVC
Duration : 25 min 2 s
Bit rate mode : Variable
Bit rate : 4 083 kb/s
Maximum bit rate : 12.7 Mb/s
Width : 1 920 pixels
Height : 1 080 pixels
Display aspect ratio : 16:9
Frame rate mode : Constant
Frame rate : 23.976 (24000/1001) FPS
Color space : YUV
Chroma subsampling : 4:2:0
Bit depth : 8 bits
Scan type : Progressive
Bits/(Pixel*Frame) : 0.082
Stream size : 731 MiB (35%)
Title : [ToonsHub]
Default : Yes
Forced : No
Color range : Limited
Color primaries : BT.709
Transfer characteristics : BT.709
Matrix coefficients : BT.709

Audio #1
ID : 2
Format : E-AC-3
Format/Info : Enhanced AC-3
Commercial name : Dolby Digital Plus
Codec ID : A_EAC3
Duration : 25 min 2 s
Bit rate mode : Constant
Bit rate : 640 kb/s
Channel(s) : 6 channels
Channel layout : L R C LFE Ls Rs
Sampling rate : 48.0 kHz
Frame rate : 31.250 FPS (1536 SPF)
Compression mode : Lossy
Stream size : 115 MiB (5%)
Title : [ToonsHub]
Language : Arabic
Service kind : Complete Main
Default : Yes
Forced : No

Audio #2
ID : 3
Format : E-AC-3
Format/Info : Enhanced AC-3
Commercial name : Dolby Digital Plus
Codec ID : A_EAC3
Duration : 25 min 2 s
Bit rate mode : Constant
Bit rate : 640 kb/s
Channel(s) : 6 channels
Channel layout : L R C LFE Ls Rs
Sampling rate : 48.0 kHz
Frame rate : 31.250 FPS (1536 SPF)
Compression mode : Lossy
Stream size : 115 MiB (5%)
Title : [ToonsHub]
Language : German
Service kind : Complete Main
Default : Yes
Forced : No

Audio #3
ID : 4
Format : E-AC-3
Format/Info : Enhanced AC-3
Commercial name : Dolby Digital Plus
Codec ID : A_EAC3
Duration : 25 min 2 s
Bit rate mode : Constant
Bit rate : 640 kb/s
Channel(s) : 6 channels
Channel layout : L R C LFE Ls Rs
Sampling rate : 48.0 kHz
Frame rate : 31.250 FPS (1536 SPF)
Compression mode : Lossy
Stream size : 115 MiB (5%)
Title : [ToonsHub]
Language : English
Service kind : Complete Main
Default : Yes
Forced : No

Audio #4
ID : 5
Format : E-AC-3
Format/Info : Enhanced AC-3
Commercial name : Dolby Digital Plus
Codec ID : A_EAC3
Duration : 25 min 2 s
Bit rate mode : Constant
Bit rate : 640 kb/s
Channel(s) : 6 channels
Channel layout : L R C LFE Ls Rs
Sampling rate : 48.0 kHz
Frame rate : 31.250 FPS (1536 SPF)
Compression mode : Lossy
Stream size : 115 MiB (5%)
Title : [ToonsHub]
Language : Spanish
Service kind : Complete Main
Default : Yes
Forced : No

Audio #5
ID : 6
Format : E-AC-3
Format/Info : Enhanced AC-3
Commercial name : Dolby Digital Plus
Codec ID : A_EAC3
Duration : 25 min 2 s
Bit rate mode : Constant
Bit rate : 640 kb/s
Channel(s) : 6 channels
Channel layout : L R C LFE Ls Rs
Sampling rate : 48.0 kHz
Frame rate : 31.250 FPS (1536 SPF)
Compression mode : Lossy
Stream size : 115 MiB (5%)
Title : [ToonsHub]
Language : Spanish
Service kind : Complete Main
Default : Yes
Forced : No

Audio #6
ID : 7
Format : E-AC-3
Format/Info : Enhanced AC-3
Commercial name : Dolby Digital Plus
Codec ID : A_EAC3
Duration : 25 min 2 s
Bit rate mode : Constant
Bit rate : 640 kb/s
Channel(s) : 6 channels
Channel layout : L R C LFE Ls Rs
Sampling rate : 48.0 kHz
Frame rate : 31.250 FPS (1536 SPF)
Compression mode : Lossy
Stream size : 115 MiB (5%)
Title : [ToonsHub]
Language : French
Service kind : Complete Main
Default : Yes
Forced : No

Audio #7
ID : 8
Format : E-AC-3
Format/Info : Enhanced AC-3
Commercial name : Dolby Digital Plus
Codec ID : A_EAC3
Duration : 25 min 2 s
Bit rate mode : Constant
Bit rate : 640 kb/s
Channel(s) : 6 channels
Channel layout : L R C LFE Ls Rs
Sampling rate : 48.0 kHz
Frame rate : 31.250 FPS (1536 SPF)
Compression mode : Lossy
Stream size : 115 MiB (5%)
Title : [ToonsHub]
Language : Hindi
Service kind : Complete Main
Default : Yes
Forced : No

Audio #8
ID : 9
Format : E-AC-3
Format/Info : Enhanced AC-3
Commercial name : Dolby Digital Plus
Codec ID : A_EAC3
Duration : 25 min 2 s
Bit rate mode : Constant
Bit rate : 640 kb/s
Channel(s) : 6 channels
Channel layout : L R C LFE Ls Rs
Sampling rate : 48.0 kHz
Frame rate : 31.250 FPS (1536 SPF)
Compression mode : Lossy
Stream size : 115 MiB (5%)
Title : [ToonsHub]
Language : Indonesian
Service kind : Complete Main
Default : Yes
Forced : No

Audio #9
ID : 10
Format : E-AC-3
Format/Info : Enhanced AC-3
Commercial name : Dolby Digital Plus
Codec ID : A_EAC3
Duration : 25 min 2 s
Bit rate mode : Constant
Bit rate : 640 kb/s
Channel(s) : 6 channels
Channel layout : L R C LFE Ls Rs
Sampling rate : 48.0 kHz
Frame rate : 31.250 FPS (1536 SPF)
Compression mode : Lossy
Stream size : 115 MiB (5%)
Title : [ToonsHub]
Language : Italian
Service kind : Complete Main
Default : Yes
Forced : No

Audio #10
ID : 11
Format : E-AC-3
Format/Info : Enhanced AC-3
Commercial name : Dolby Digital Plus
Codec ID : A_EAC3
Duration : 25 min 2 s
Bit rate mode : Constant
Bit rate : 640 kb/s
Channel(s) : 6 channels
Channel layout : L R C LFE Ls Rs
Sampling rate : 48.0 kHz
Frame rate : 31.250 FPS (1536 SPF)
Compression mode : Lossy
Stream size : 115 MiB (5%)
Title : [ToonsHub]
Language : Japanese
Service kind : Complete Main
Default : Yes
Forced : No

Audio #11
ID : 12
Format : E-AC-3
Format/Info : Enhanced AC-3
Commercial name : Dolby Digital Plus
Codec ID : A_EAC3
Duration : 25 min 2 s
Bit rate mode : Constant
Bit rate : 640 kb/s
Channel(s) : 6 channels
Channel layout : L R C LFE Ls Rs
Sampling rate : 48.0 kHz
Frame rate : 31.250 FPS (1536 SPF)
Compression mode : Lossy
Stream size : 115 MiB (5%)
Title : [ToonsHub]
Language : Portuguese
Service kind : Complete Main
Default : Yes
Forced : No

Audio #12
ID : 13
Format : E-AC-3
Format/Info : Enhanced AC-3
Commercial name : Dolby Digital Plus
Codec ID : A_EAC3
Duration : 25 min 2 s
Bit rate mode : Constant
Bit rate : 640 kb/s
Channel(s) : 6 channels
Channel layout : L R C LFE Ls Rs
Sampling rate : 48.0 kHz
Frame rate : 31.250 FPS (1536 SPF)
Compression mode : Lossy
Stream size : 115 MiB (5%)
Title : [ToonsHub]
Language : Thai
Service kind : Complete Main
Default : Yes
Forced : No

Text #1
ID : 14
Format : UTF-8
Codec ID : S_TEXT/UTF8
Codec ID/Info : UTF-8 Plain Text
Duration : 24 min 59 s
Bit rate : 80 b/s
Frame rate : 0.307 FPS
Count of elements : 461
Stream size : 14.8 KiB (0%)
Title : [ToonsHub]
Language : Japanese
Default : No
Forced : No

Text #2
ID : 15
Format : UTF-8
Codec ID : S_TEXT/UTF8
Codec ID/Info : UTF-8 Plain Text
Duration : 24 min 59 s
Bit rate : 89 b/s
Frame rate : 0.311 FPS
Count of elements : 467
Stream size : 16.4 KiB (0%)
Title : [ToonsHub] SDH
Language : Japanese
Default : No
Forced : No

Text #3
ID : 16
Format : UTF-8
Codec ID : S_TEXT/UTF8
Codec ID/Info : UTF-8 Plain Text
Duration : 23 min 38 s
Bit rate : 83 b/s
Frame rate : 0.296 FPS
Count of elements : 420
Stream size : 14.4 KiB (0%)
Title : [ToonsHub]
Language : English
Default : No
Forced : No

Text #4
ID : 17
Format : UTF-8
Codec ID : S_TEXT/UTF8
Codec ID/Info : UTF-8 Plain Text
Duration : 22 min 4 s
Bit rate : 90 b/s
Frame rate : 0.329 FPS
Count of elements : 436
Stream size : 14.7 KiB (0%)
Title : [ToonsHub] CC
Language : English
Default : No
Forced : No

Text #5
ID : 18
Format : UTF-8
Codec ID : S_TEXT/UTF8
Codec ID/Info : UTF-8 Plain Text
Duration : 23 min 32 s
Bit rate : 100 b/s
Frame rate : 0.356 FPS
Count of elements : 503
Stream size : 17.4 KiB (0%)
Title : [ToonsHub] Signs
Language : English
Default : No
Forced : No

Text #6
ID : 19
Format : UTF-8
Codec ID : S_TEXT/UTF8
Codec ID/Info : UTF-8 Plain Text
Duration : 23 min 38 s
Bit rate : 115 b/s
Frame rate : 0.296 FPS
Count of elements : 420
Stream size : 20.0 KiB (0%)
Title : [ToonsHub]
Language : Arabic
Default : No
Forced : No

Text #7
ID : 20
Format : UTF-8
Codec ID : S_TEXT/UTF8
Codec ID/Info : UTF-8 Plain Text
Duration : 23 min 38 s
Bit rate : 71 b/s
Frame rate : 0.296 FPS
Count of elements : 420
Stream size : 12.4 KiB (0%)
Title : [ToonsHub]
Language : Czech
Default : No
Forced : No

Text #8
ID : 21
Format : UTF-8
Codec ID : S_TEXT/UTF8
Codec ID/Info : UTF-8 Plain Text
Duration : 23 min 37 s
Bit rate : 76 b/s
Frame rate : 0.296 FPS
Count of elements : 420
Stream size : 13.3 KiB (0%)
Title : [ToonsHub]
Language : Danish
Default : No
Forced : No

Text #9
ID : 22
Format : UTF-8
Codec ID : S_TEXT/UTF8
Codec ID/Info : UTF-8 Plain Text
Duration : 23 min 37 s
Bit rate : 76 b/s
Frame rate : 0.296 FPS
Count of elements : 420
Stream size : 13.2 KiB (0%)
Title : [ToonsHub]
Language : German
Default : No
Forced : No

Text #10
ID : 23
Format : UTF-8
Codec ID : S_TEXT/UTF8
Codec ID/Info : UTF-8 Plain Text
Duration : 23 min 38 s
Bit rate : 133 b/s
Frame rate : 0.286 FPS
Count of elements : 405
Stream size : 23.2 KiB (0%)
Title : [ToonsHub]
Language : Greek
Default : No
Forced : No

Text #11
ID : 24
Format : UTF-8
Codec ID : S_TEXT/UTF8
Codec ID/Info : UTF-8 Plain Text
Duration : 23 min 38 s
Bit rate : 82 b/s
Frame rate : 0.296 FPS
Count of elements : 420
Stream size : 14.3 KiB (0%)
Title : [ToonsHub]
Language : Spanish
Default : No
Forced : No

Text #12
ID : 25
Format : UTF-8
Codec ID : S_TEXT/UTF8
Codec ID/Info : UTF-8 Plain Text
Duration : 23 min 38 s
Bit rate : 82 b/s
Frame rate : 0.294 FPS
Count of elements : 417
Stream size : 14.3 KiB (0%)
Title : [ToonsHub]
Language : Spanish
Default : No
Forced : No

Text #13
ID : 26
Format : UTF-8
Codec ID : S_TEXT/UTF8
Codec ID/Info : UTF-8 Plain Text
Duration : 23 min 37 s
Bit rate : 78 b/s
Frame rate : 0.296 FPS
Count of elements : 420
Stream size : 13.6 KiB (0%)
Title : [ToonsHub]
Language : Finnish
Default : No
Forced : No

Text #14
ID : 27
Format : UTF-8
Codec ID : S_TEXT/UTF8
Codec ID/Info : UTF-8 Plain Text
Duration : 23 min 37 s
Bit rate : 85 b/s
Frame rate : 0.306 FPS
Count of elements : 433
Stream size : 14.8 KiB (0%)
Title : [ToonsHub]
Language : fil
Default : No
Forced : No

Text #15
ID : 28
Format : UTF-8
Codec ID : S_TEXT/UTF8
Codec ID/Info : UTF-8 Plain Text
Duration : 23 min 38 s
Bit rate : 81 b/s
Frame rate : 0.296 FPS
Count of elements : 420
Stream size : 14.0 KiB (0%)
Title : [ToonsHub]
Language : French
Default : No
Forced : No

Text #16
ID : 29
Format : UTF-8
Codec ID : S_TEXT/UTF8
Codec ID/Info : UTF-8 Plain Text
Duration : 23 min 38 s
Bit rate : 108 b/s
Frame rate : 0.295 FPS
Count of elements : 419
Stream size : 18.7 KiB (0%)
Title : [ToonsHub]
Language : Hebrew
Default : No
Forced : No

Text #17
ID : 30
Format : UTF-8
Codec ID : S_TEXT/UTF8
Codec ID/Info : UTF-8 Plain Text
Duration : 24 min 58 s
Bit rate : 198 b/s
Frame rate : 0.282 FPS
Count of elements : 422
Stream size : 36.3 KiB (0%)
Title : [ToonsHub]
Language : Hindi
Default : No
Forced : No

Text #18
ID : 31
Format : UTF-8
Codec ID : S_TEXT/UTF8
Codec ID/Info : UTF-8 Plain Text
Duration : 23 min 38 s
Bit rate : 69 b/s
Frame rate : 0.296 FPS
Count of elements : 420
Stream size : 12.0 KiB (0%)
Title : [ToonsHub]
Language : Croatian
Default : No
Forced : No

Text #19
ID : 32
Format : UTF-8
Codec ID : S_TEXT/UTF8
Codec ID/Info : UTF-8 Plain Text
Duration : 23 min 38 s
Bit rate : 78 b/s
Frame rate : 0.296 FPS
Count of elements : 420
Stream size : 13.5 KiB (0%)
Title : [ToonsHub]
Language : Hungarian
Default : No
Forced : No

Text #20
ID : 33
Format : UTF-8
Codec ID : S_TEXT/UTF8
Codec ID/Info : UTF-8 Plain Text
Duration : 23 min 37 s
Bit rate : 83 b/s
Frame rate : 0.303 FPS
Count of elements : 429
Stream size : 14.4 KiB (0%)
Title : [ToonsHub]
Language : Indonesian
Default : No
Forced : No

Text #21
ID : 34
Format : UTF-8
Codec ID : S_TEXT/UTF8
Codec ID/Info : UTF-8 Plain Text
Duration : 23 min 37 s
Bit rate : 81 b/s
Frame rate : 0.294 FPS
Count of elements : 417
Stream size : 14.0 KiB (0%)
Title : [ToonsHub]
Language : Italian
Default : No
Forced : No

Text #22
ID : 35
Format : UTF-8
Codec ID : S_TEXT/UTF8
Codec ID/Info : UTF-8 Plain Text
Duration : 23 min 38 s
Bit rate : 79 b/s
Frame rate : 0.295 FPS
Count of elements : 418
Stream size : 13.8 KiB (0%)
Title : [ToonsHub]
Language : Korean
Default : No
Forced : No

Text #23
ID : 36
Format : UTF-8
Codec ID : S_TEXT/UTF8
Codec ID/Info : UTF-8 Plain Text
Duration : 23 min 38 s
Bit rate : 82 b/s
Frame rate : 0.296 FPS
Count of elements : 420
Stream size : 14.2 KiB (0%)
Title : [ToonsHub]
Language : Malay
Default : No
Forced : No

Text #24
ID : 37
Format : UTF-8
Codec ID : S_TEXT/UTF8
Codec ID/Info : UTF-8 Plain Text
Duration : 23 min 38 s
Bit rate : 76 b/s
Frame rate : 0.295 FPS
Count of elements : 419
Stream size : 13.2 KiB (0%)
Title : [ToonsHub]
Language : Norwegian Bokmal
Default : No
Forced : No

Text #25
ID : 38
Format : UTF-8
Codec ID : S_TEXT/UTF8
Codec ID/Info : UTF-8 Plain Text
Duration : 23 min 38 s
Bit rate : 76 b/s
Frame rate : 0.296 FPS
Count of elements : 420
Stream size : 13.3 KiB (0%)
Title : [ToonsHub]
Language : Dutch
Default : No
Forced : No

Text #26
ID : 39
Format : UTF-8
Codec ID : S_TEXT/UTF8
Codec ID/Info : UTF-8 Plain Text
Duration : 23 min 38 s
Bit rate : 72 b/s
Frame rate : 0.288 FPS
Count of elements : 409
Stream size : 12.5 KiB (0%)
Title : [ToonsHub]
Language : Polish
Default : No
Forced : No

Text #27
ID : 40
Format : UTF-8
Codec ID : S_TEXT/UTF8
Codec ID/Info : UTF-8 Plain Text
Duration : 23 min 38 s
Bit rate : 78 b/s
Frame rate : 0.296 FPS
Count of elements : 420
Stream size : 13.6 KiB (0%)
Title : [ToonsHub]
Language : Portuguese
Default : No
Forced : No

Text #28
ID : 41
Format : UTF-8
Codec ID : S_TEXT/UTF8
Codec ID/Info : UTF-8 Plain Text
Duration : 23 min 38 s
Bit rate : 82 b/s
Frame rate : 0.283 FPS
Count of elements : 401
Stream size : 14.3 KiB (0%)
Title : [ToonsHub]
Language : Portuguese
Default : No
Forced : No

Text #29
ID : 42
Format : UTF-8
Codec ID : S_TEXT/UTF8
Codec ID/Info : UTF-8 Plain Text
Duration : 23 min 38 s
Bit rate : 79 b/s
Frame rate : 0.296 FPS
Count of elements : 420
Stream size : 13.7 KiB (0%)
Title : [ToonsHub]
Language : Romanian
Default : No
Forced : No

Text #30
ID : 43
Format : UTF-8
Codec ID : S_TEXT/UTF8
Codec ID/Info : UTF-8 Plain Text
Duration : 23 min 38 s
Bit rate : 78 b/s
Frame rate : 0.296 FPS
Count of elements : 420
Stream size : 13.6 KiB (0%)
Title : [ToonsHub]
Language : Swedish
Default : No
Forced : No

Text #31
ID : 44
Format : UTF-8
Codec ID : S_TEXT/UTF8
Codec ID/Info : UTF-8 Plain Text
Duration : 23 min 37 s
Bit rate : 174 b/s
Frame rate : 0.297 FPS
Count of elements : 421
Stream size : 30.2 KiB (0%)
Title : [ToonsHub]
Language : Thai
Default : No
Forced : No

Text #32
ID : 45
Format : UTF-8
Codec ID : S_TEXT/UTF8
Codec ID/Info : UTF-8 Plain Text
Duration : 23 min 38 s
Bit rate : 79 b/s
Frame rate : 0.296 FPS
Count of elements : 420
Stream size : 13.8 KiB (0%)
Title : [ToonsHub]
Language : Turkish
Default : No
Forced : No

Text #33
ID : 46
Format : UTF-8
Codec ID : S_TEXT/UTF8
Codec ID/Info : UTF-8 Plain Text
Duration : 23 min 38 s
Bit rate : 135 b/s
Frame rate : 0.296 FPS
Count of elements : 420
Stream size : 23.5 KiB (0%)
Title : [ToonsHub]
Language : Ukrainian
Default : No
Forced : No

Text #34
ID : 47
Format : UTF-8
Codec ID : S_TEXT/UTF8
Codec ID/Info : UTF-8 Plain Text
Duration : 23 min 37 s
Bit rate : 103 b/s
Frame rate : 0.289 FPS
Count of elements : 409
Stream size : 17.9 KiB (0%)
Title : [ToonsHub]
Language : Vietnamese
Default : No
Forced : No

Text #35
ID : 48
Format : UTF-8
Codec ID : S_TEXT/UTF8
Codec ID/Info : UTF-8 Plain Text
Duration : 23 min 38 s
Bit rate : 66 b/s
Frame rate : 0.296 FPS
Count of elements : 420
Stream size : 11.6 KiB (0%)
Title : [ToonsHub]
Language : Chinese
Default : No
Forced : No

Text #36
ID : 49
Format : UTF-8
Codec ID : S_TEXT/UTF8
Codec ID/Info : UTF-8 Plain Text
Duration : 23 min 38 s
Bit rate : 69 b/s
Frame rate : 0.296 FPS
Count of elements : 420
Stream size : 12.0 KiB (0%)
Title : [ToonsHub]
Language : Chinese
Default : No
Forced : No

Menu
00:01:29.989 : en:Chapter 1
00:23:32.015 : en:Credits





Delicious in Dungeon S01E10 Giant Frogs-Aboveground 1080p DSNP WEB-DL x264  (DDP 5 1) MSubs ToonsHub


Delicious in Dungeon S01E10 Giant Frogs-Aboveground 1080p DSNP WEB-DL x264  (DDP 5 1) MSubs ToonsHub


Delicious in Dungeon S01E10 Giant Frogs-Aboveground 1080p DSNP WEB-DL x264  (DDP 5 1) MSubs ToonsHub


Delicious in Dungeon S01E10 Giant Frogs-Aboveground 1080p DSNP WEB-DL x264  (DDP 5 1) MSubs ToonsHub