Tags
Language
Tags
April 2024
Su Mo Tu We Th Fr Sa
31 1 2 3 4 5 6
7 8 9 10 11 12 13
14 15 16 17 18 19 20
21 22 23 24 25 26 27
28 29 30 1 2 3 4

Demon City Shinjuku 1988 BD

Posted By: Otaku
Demon City Shinjuku 1988 BD

Demon City Shinjuku 1988 BD
MKV | 1440x1080 | English / 日本語 | H265 @ 3786 kbps | FLAC @ 640.905 kbps | 1 h 19 min | 2.98 GiB
Subtitles: English



Demon City Shinjuku (1988) (BD 1080p x265 HEVC FLAC 2.0)(Dual Audio)[sxales](v2).md5 (237 bytes)
Demon City Shinjuku (1988) (BD 1080p x265 HEVC FLAC 2.0)(Dual Audio)[sxales](v2).mkv (3.0 GB)



General
Unique ID : 114179272632189543099061527136256121937 (0x55E620C5DB91B1DFEB0EFC964AA3DC51)
Complete name : ./Demon City Shinjuku (1988) (BD 1080p x265 HEVC FLAC 2.0)(Dual Audio)[sxales](v2).mkv
Format : Matroska
Format version : Version 4
File size : 2.98 GiB
Duration : 1 h 19 min
Overall bit rate mode : Variable
Overall bit rate : 5 391 kb/s
Encoded date : UTC 2023-10-25 23:31:07
Writing application : mkvmerge v59.0.0 ('Shining Star') 64-bit
Writing library : libebml v1.4.2 + libmatroska v1.6.4
Attachments : FrutigerLTStd-LightCn.otf / SyntaxLTStd-Black.otf / VistaSansOT-Reg.otf

Video
ID : 1
Format : HEVC
Format/Info : High Efficiency Video Coding
Format profile : Main 10@L5@Main
Codec ID : V_MPEGH/ISO/HEVC
Duration : 1 h 19 min
Bit rate : 3 787 kb/s
Width : 1 440 pixels
Height : 1 080 pixels
Display aspect ratio : 4:3
Frame rate mode : Constant
Frame rate : 23.976 (24000/1001) FPS
Color space : YUV
Chroma subsampling : 4:2:0
Bit depth : 10 bits
Bits/(Pixel*Frame) : 0.102
Stream size : 2.09 GiB (70%)
Default : Yes
Forced : No

Audio #1
ID : 2
Format : FLAC
Format/Info : Free Lossless Audio Codec
Codec ID : A_FLAC
Duration : 1 h 19 min
Bit rate mode : Variable
Bit rate : 641 kb/s
Channel(s) : 2 channels
Channel layout : L R
Sampling rate : 48.0 kHz
Frame rate : 11.719 FPS (4096 SPF)
Bit depth : 16 bits
Compression mode : Lossless
Stream size : 362 MiB (12%)
Writing library : libFLAC 1.2.1 (UTC 2007-09-17)
Language : Japanese
Default : Yes
Forced : No

Audio #2
ID : 3
Format : DTS
Format/Info : Digital Theater Systems
Codec ID : A_DTS
Duration : 1 h 19 min
Bit rate mode : Constant
Bit rate : 768 kb/s
Channel(s) : 6 channels
Channel layout : C L R Ls Rs LFE
Sampling rate : 48.0 kHz
Frame rate : 93.750 FPS (512 SPF)
Bit depth : 24 bits
Compression mode : Lossy
Stream size : 434 MiB (14%)
Language : Japanese
Default : No
Forced : No

Audio #3
ID : 4
Format : AC-3
Format/Info : Audio Coding 3
Commercial name : Dolby Digital
Codec ID : A_AC3
Duration : 1 h 19 min
Bit rate mode : Constant
Bit rate : 192 kb/s
Channel(s) : 2 channels
Channel layout : L R
Sampling rate : 48.0 kHz
Frame rate : 31.250 FPS (1536 SPF)
Compression mode : Lossy
Stream size : 109 MiB (4%)
Language : English
Service kind : Complete Main
Default : No
Forced : No

Text
ID : 5
Format : ASS
Codec ID : S_TEXT/ASS
Codec ID/Info : Advanced Sub Station Alpha
Duration : 1 h 13 min
Bit rate : 66 b/s
Frame rate : 0.125 FPS
Count of elements : 555
Compression mode : Lossless
Stream size : 36.0 KiB (0%)
Language : English
Default : Yes
Forced : No

Menu
00:00:00.000 : :Chapter 01
00:04:32.481 : :Chapter 02
00:06:50.619 : :Chapter 03
00:12:35.922 : :Chapter 04
00:16:37.121 : :Chapter 05
00:22:27.638 : :Chapter 06
00:27:30.816 : :Chapter 07
00:35:59.574 : :Chapter 08
00:39:53.308 : :Chapter 09
00:43:48.960 : :Chapter 10
00:46:09.475 : :Chapter 11
00:49:10.823 : :Chapter 12
00:52:29.396 : :Chapter 13
01:02:44.803 : :Chapter 14
01:08:25.977 : :Chapter 15
01:15:48.919 : :Chapter 16





Demon City Shinjuku 1988 BD


Demon City Shinjuku 1988 BD


Demon City Shinjuku 1988 BD


Demon City Shinjuku 1988 BD