Tags
Language
Tags
May 2024
Su Mo Tu We Th Fr Sa
28 29 30 1 2 3 4
5 6 7 8 9 10 11
12 13 14 15 16 17 18
19 20 21 22 23 24 25
26 27 28 29 30 31 1

Dungeon Meshi - 13 mkv

Posted By: Otaku
Dungeon Meshi - 13 mkv

Dungeon Meshi - 13 mkv
MKV | 1920x1080 | Deutsch / Italiano / Português / ภาษาไทย / हिन्दी / Español / Français / Bahasa Indonesia / العربية / English / 日本語 | V_AV1 @ 1417 kbps | Opus @ 220.859 kbps | 24 min 2 s | 707 MiB
Subtitles: Deutsch, Română, Svenska, Français, Bahasa Indonesia, Ελληνικά, English, Hrvatski, Suomi, 한국어, tiếng Việt, Українська, Polski, العربية, Dansk, Nederlands, Čeština, Italiano, ภาษาไทย, Español, Bokmål, Türkçe, 中文, 日本語, עברית, Magyar, Português, हिन्दी



[Ironclad] Dungeon Meshi - 13 [10bit.1080p.AV1].mkv (706.7 MB)



General
Unique ID : 307730543831674598974647210184356156034 (0xE782BF35F078ED49C46833E16FC85282)
Complete name : ./[Ironclad] Dungeon Meshi - 13 [10bit.1080p.AV1].mkv
Format : Matroska
Format version : Version 4
File size : 707 MiB
Duration : 24 min 2 s
Overall bit rate : 4 111 kb/s
Encoded date : UTC 2024-03-28 23:06:59
Writing application : mkvmerge v83.0 ('Circle Of Friends') 64-bit
Writing library : libebml v1.4.5 + libmatroska v1.7.1
Encoder settings : rav1e 0.7.1: "–quantizer 20-133 –tiles 8 -s 2"
Film grain synthesis settings : grav1synth: "diff"
Target SSIMULACRA 2 : Mean: 80, 5th percentile: 70
Vapoursynth filters : Denoise with vs-nlm-cuda: "d=2, a=[3,2,2], h=0.3, channels=YUV", dering with vs-dehalo: "planes=[0,1,2]", deband with soifunc, dither with vs-tools

Video
ID : 1
Format : AV1
Format/Info : AOMedia Video 1
Format profile : Main
Codec ID : V_AV1
Duration : 24 min 2 s
Bit rate : 1 418 kb/s
Width : 1 920 pixels
Height : 1 080 pixels
Display aspect ratio : 16:9
Frame rate mode : Constant
Frame rate : 23.976 (24000/1001) FPS
Color space : YUV
Chroma subsampling : 4:2:0
Bit depth : 10 bits
Bits/(Pixel*Frame) : 0.029
Stream size : 244 MiB (34%)
Title : NanDesuKa
Default : Yes
Forced : No
Color range : Limited
Color primaries : BT.709
Transfer characteristics : BT.709
Matrix coefficients : BT.709

Audio #1
ID : 2
Format : Opus
Codec ID : A_OPUS
Duration : 24 min 1 s
Bit rate : 221 kb/s
Channel(s) : 6 channels
Channel layout : L R C Lb Rb LFE
Sampling rate : 48.0 kHz
Frame rate : 50.000 FPS (960 SPF)
Compression mode : Lossy
Stream size : 38.0 MiB (5%)
Writing library : Lavf61.0.100
Language : Japanese
Default : Yes
Forced : No
ENCODER_OPTIONS : –bitrate 256

Audio #2
ID : 3
Format : Opus
Codec ID : A_OPUS
Duration : 24 min 1 s
Bit rate : 219 kb/s
Channel(s) : 6 channels
Channel layout : L R C Lb Rb LFE
Sampling rate : 48.0 kHz
Frame rate : 50.000 FPS (960 SPF)
Compression mode : Lossy
Stream size : 37.7 MiB (5%)
Writing library : Lavf61.0.100
Language : English
Default : Yes
Forced : No
ENCODER_OPTIONS : –bitrate 256

Audio #3
ID : 4
Format : Opus
Codec ID : A_OPUS
Duration : 24 min 1 s
Bit rate : 221 kb/s
Channel(s) : 6 channels
Channel layout : L R C Lb Rb LFE
Sampling rate : 48.0 kHz
Frame rate : 50.000 FPS (960 SPF)
Compression mode : Lossy
Stream size : 38.0 MiB (5%)
Writing library : Lavf61.0.100
Language : Spanish
Default : Yes
Forced : No
ENCODER_OPTIONS : –bitrate 256

Audio #4
ID : 5
Format : Opus
Codec ID : A_OPUS
Duration : 24 min 1 s
Bit rate : 218 kb/s
Channel(s) : 6 channels
Channel layout : L R C Lb Rb LFE
Sampling rate : 48.0 kHz
Frame rate : 50.000 FPS (960 SPF)
Compression mode : Lossy
Stream size : 37.5 MiB (5%)
Writing library : Lavf61.0.100
Language : Spanish
Default : Yes
Forced : No
ENCODER_OPTIONS : –bitrate 256

Audio #5
ID : 6
Format : Opus
Codec ID : A_OPUS
Duration : 24 min 1 s
Bit rate : 225 kb/s
Channel(s) : 6 channels
Channel layout : L R C Lb Rb LFE
Sampling rate : 48.0 kHz
Frame rate : 50.000 FPS (960 SPF)
Compression mode : Lossy
Stream size : 38.6 MiB (5%)
Writing library : Lavf61.0.100
Language : Arabic
Default : Yes
Forced : No
ENCODER_OPTIONS : –bitrate 256

Audio #6
ID : 7
Format : Opus
Codec ID : A_OPUS
Duration : 24 min 1 s
Bit rate : 222 kb/s
Channel(s) : 6 channels
Channel layout : L R C Lb Rb LFE
Sampling rate : 48.0 kHz
Frame rate : 50.000 FPS (960 SPF)
Compression mode : Lossy
Stream size : 38.1 MiB (5%)
Writing library : Lavf61.0.100
Language : French
Default : Yes
Forced : No
ENCODER_OPTIONS : –bitrate 256

Audio #7
ID : 8
Format : Opus
Codec ID : A_OPUS
Duration : 24 min 1 s
Bit rate : 244 kb/s
Channel(s) : 6 channels
Channel layout : L R C Lb Rb LFE
Sampling rate : 48.0 kHz
Frame rate : 50.000 FPS (960 SPF)
Compression mode : Lossy
Stream size : 42.0 MiB (6%)
Writing library : Lavf61.0.100
Language : German
Default : Yes
Forced : No
ENCODER_OPTIONS : –bitrate 256

Audio #8
ID : 9
Format : Opus
Codec ID : A_OPUS
Duration : 24 min 1 s
Bit rate : 222 kb/s
Channel(s) : 6 channels
Channel layout : L R C Lb Rb LFE
Sampling rate : 48.0 kHz
Frame rate : 50.000 FPS (960 SPF)
Compression mode : Lossy
Stream size : 38.1 MiB (5%)
Writing library : Lavf61.0.100
Language : Italian
Default : Yes
Forced : No
ENCODER_OPTIONS : –bitrate 256

Audio #9
ID : 10
Format : Opus
Codec ID : A_OPUS
Duration : 24 min 1 s
Bit rate : 220 kb/s
Channel(s) : 6 channels
Channel layout : L R C Lb Rb LFE
Sampling rate : 48.0 kHz
Frame rate : 50.000 FPS (960 SPF)
Compression mode : Lossy
Stream size : 37.7 MiB (5%)
Writing library : Lavf61.0.100
Language : Portuguese
Default : Yes
Forced : No
ENCODER_OPTIONS : –bitrate 256

Audio #10
ID : 11
Format : Opus
Codec ID : A_OPUS
Duration : 24 min 1 s
Bit rate : 221 kb/s
Channel(s) : 6 channels
Channel layout : L R C Lb Rb LFE
Sampling rate : 48.0 kHz
Frame rate : 50.000 FPS (960 SPF)
Compression mode : Lossy
Stream size : 38.0 MiB (5%)
Writing library : Lavf61.0.100
Language : Indonesian
Default : Yes
Forced : No
ENCODER_OPTIONS : –bitrate 256

Audio #11
ID : 12
Format : Opus
Codec ID : A_OPUS
Duration : 24 min 1 s
Bit rate : 220 kb/s
Channel(s) : 6 channels
Channel layout : L R C Lb Rb LFE
Sampling rate : 48.0 kHz
Frame rate : 50.000 FPS (960 SPF)
Compression mode : Lossy
Stream size : 37.8 MiB (5%)
Writing library : Lavf61.0.100
Language : Thai
Default : Yes
Forced : No
ENCODER_OPTIONS : –bitrate 256

Audio #12
ID : 13
Format : Opus
Codec ID : A_OPUS
Duration : 24 min 1 s
Bit rate : 223 kb/s
Channel(s) : 6 channels
Channel layout : L R C Lb Rb LFE
Sampling rate : 48.0 kHz
Frame rate : 50.000 FPS (960 SPF)
Compression mode : Lossy
Stream size : 38.3 MiB (5%)
Writing library : Lavf61.0.100
Language : Hindi
Default : Yes
Forced : No
ENCODER_OPTIONS : –bitrate 256

Text #1
ID : 14
Format : UTF-8
Muxing mode : zlib
Codec ID : S_TEXT/UTF8
Codec ID/Info : UTF-8 Plain Text
Duration : 10 min 19 s
Bit rate : 1 b/s
Frame rate : 0.008 FPS
Count of elements : 5
Stream size : 102 Bytes (0%)
Title : Forced
Language : English
Default : No
Forced : Yes

Text #2
ID : 15
Format : UTF-8
Muxing mode : zlib
Codec ID : S_TEXT/UTF8
Codec ID/Info : UTF-8 Plain Text
Duration : 22 min 36 s
Bit rate : 62 b/s
Frame rate : 0.249 FPS
Count of elements : 338
Stream size : 10.3 KiB (0%)
Language : English
Default : No
Forced : No

Text #3
ID : 16
Format : UTF-8
Muxing mode : zlib
Codec ID : S_TEXT/UTF8
Codec ID/Info : UTF-8 Plain Text
Duration : 22 min 32 s
Bit rate : 89 b/s
Frame rate : 0.353 FPS
Count of elements : 477
Stream size : 14.8 KiB (0%)
Title : SDH
Language : English
Default : No
Forced : No

Text #4
ID : 17
Format : UTF-8
Muxing mode : zlib
Codec ID : S_TEXT/UTF8
Codec ID/Info : UTF-8 Plain Text
Duration : 21 min 5 s
Bit rate : 73 b/s
Frame rate : 0.292 FPS
Count of elements : 369
Stream size : 11.3 KiB (0%)
Title : Dub
Language : English
Default : No
Forced : No

Text #5
ID : 18
Format : UTF-8
Muxing mode : zlib
Codec ID : S_TEXT/UTF8
Codec ID/Info : UTF-8 Plain Text
Duration : 10 min 19 s
Bit rate : 1 b/s
Frame rate : 0.008 FPS
Count of elements : 5
Stream size : 118 Bytes (0%)
Title : Latin American (Forced)
Language : Spanish
Default : No
Forced : Yes

Text #6
ID : 19
Format : UTF-8
Muxing mode : zlib
Codec ID : S_TEXT/UTF8
Codec ID/Info : UTF-8 Plain Text
Duration : 10 min 19 s
Bit rate : 1 b/s
Frame rate : 0.006 FPS
Count of elements : 4
Stream size : 88.0 Bytes (0%)
Title : European (Forced)
Language : Spanish
Default : No
Forced : Yes

Text #7
ID : 20
Format : UTF-8
Muxing mode : zlib
Codec ID : S_TEXT/UTF8
Codec ID/Info : UTF-8 Plain Text
Duration : 22 min 36 s
Bit rate : 60 b/s
Frame rate : 0.249 FPS
Count of elements : 338
Stream size : 10.0 KiB (0%)
Title : Latin American
Language : Spanish
Default : No
Forced : No

Text #8
ID : 21
Format : UTF-8
Muxing mode : zlib
Codec ID : S_TEXT/UTF8
Codec ID/Info : UTF-8 Plain Text
Duration : 22 min 36 s
Bit rate : 67 b/s
Frame rate : 0.245 FPS
Count of elements : 333
Stream size : 11.2 KiB (0%)
Title : European
Language : Spanish
Default : No
Forced : No

Text #9
ID : 22
Format : UTF-8
Muxing mode : zlib
Codec ID : S_TEXT/UTF8
Codec ID/Info : UTF-8 Plain Text
Duration : 21 min 6 s
Bit rate : 75 b/s
Frame rate : 0.179 FPS
Count of elements : 226
Stream size : 11.6 KiB (0%)
Title : Latin American (Dub)
Language : Spanish
Default : No
Forced : No

Text #10
ID : 23
Format : UTF-8
Muxing mode : zlib
Codec ID : S_TEXT/UTF8
Codec ID/Info : UTF-8 Plain Text
Duration : 21 min 5 s
Bit rate : 69 b/s
Frame rate : 0.231 FPS
Count of elements : 292
Stream size : 10.7 KiB (0%)
Title : European (Dub)
Language : Spanish
Default : No
Forced : No

Text #11
ID : 24
Format : UTF-8
Muxing mode : zlib
Codec ID : S_TEXT/UTF8
Codec ID/Info : UTF-8 Plain Text
Duration : 10 min 10 s
Bit rate : 2 b/s
Frame rate : 0.007 FPS
Count of elements : 4
Stream size : 180 Bytes (0%)
Title : Forced
Language : Arabic
Default : No
Forced : Yes

Text #12
ID : 25
Format : UTF-8
Muxing mode : zlib
Codec ID : S_TEXT/UTF8
Codec ID/Info : UTF-8 Plain Text
Duration : 22 min 36 s
Bit rate : 91 b/s
Frame rate : 0.249 FPS
Count of elements : 338
Stream size : 15.2 KiB (0%)
Language : Arabic
Default : No
Forced : No

Text #13
ID : 26
Format : UTF-8
Muxing mode : zlib
Codec ID : S_TEXT/UTF8
Codec ID/Info : UTF-8 Plain Text
Duration : 10 min 19 s
Bit rate : 1 b/s
Frame rate : 0.008 FPS
Count of elements : 5
Stream size : 118 Bytes (0%)
Title : Forced
Language : French
Default : No
Forced : Yes

Text #14
ID : 27
Format : UTF-8
Muxing mode : zlib
Codec ID : S_TEXT/UTF8
Codec ID/Info : UTF-8 Plain Text
Duration : 22 min 36 s
Bit rate : 63 b/s
Frame rate : 0.249 FPS
Count of elements : 338
Stream size : 10.6 KiB (0%)
Language : French
Default : No
Forced : No

Text #15
ID : 28
Format : UTF-8
Muxing mode : zlib
Codec ID : S_TEXT/UTF8
Codec ID/Info : UTF-8 Plain Text
Duration : 21 min 5 s
Bit rate : 84 b/s
Frame rate : 0.321 FPS
Count of elements : 406
Stream size : 13.1 KiB (0%)
Title : Dub
Language : French
Default : No
Forced : No

Text #16
ID : 29
Format : UTF-8
Muxing mode : zlib
Codec ID : S_TEXT/UTF8
Codec ID/Info : UTF-8 Plain Text
Duration : 10 min 19 s
Bit rate : 1 b/s
Frame rate : 0.008 FPS
Count of elements : 5
Stream size : 109 Bytes (0%)
Title : Forced
Language : German
Default : No
Forced : Yes

Text #17
ID : 30
Format : UTF-8
Muxing mode : zlib
Codec ID : S_TEXT/UTF8
Codec ID/Info : UTF-8 Plain Text
Duration : 22 min 36 s
Bit rate : 57 b/s
Frame rate : 0.248 FPS
Count of elements : 337
Stream size : 9.52 KiB (0%)
Language : German
Default : No
Forced : No

Text #18
ID : 31
Format : UTF-8
Muxing mode : zlib
Codec ID : S_TEXT/UTF8
Codec ID/Info : UTF-8 Plain Text
Duration : 10 min 10 s
Bit rate : 1 b/s
Frame rate : 0.005 FPS
Count of elements : 3
Stream size : 85.0 Bytes (0%)
Title : Forced
Language : Italian
Default : No
Forced : Yes

Text #19
ID : 32
Format : UTF-8
Muxing mode : zlib
Codec ID : S_TEXT/UTF8
Codec ID/Info : UTF-8 Plain Text
Duration : 22 min 36 s
Bit rate : 57 b/s
Frame rate : 0.250 FPS
Count of elements : 339
Stream size : 9.59 KiB (0%)
Language : Italian
Default : No
Forced : No

Text #20
ID : 33
Format : UTF-8
Muxing mode : zlib
Codec ID : S_TEXT/UTF8
Codec ID/Info : UTF-8 Plain Text
Duration : 20 min 56 s
Bit rate : 77 b/s
Frame rate : 0.246 FPS
Count of elements : 309
Stream size : 11.8 KiB (0%)
Title : Dub
Language : Italian
Default : No
Forced : No

Text #21
ID : 34
Format : UTF-8
Muxing mode : zlib
Codec ID : S_TEXT/UTF8
Codec ID/Info : UTF-8 Plain Text
Duration : 23 min 59 s
Bit rate : 84 b/s
Frame rate : 0.309 FPS
Count of elements : 444
Stream size : 14.9 KiB (0%)
Language : Japanese
Default : No
Forced : No

Text #22
ID : 35
Format : UTF-8
Muxing mode : zlib
Codec ID : S_TEXT/UTF8
Codec ID/Info : UTF-8 Plain Text
Duration : 23 min 59 s
Bit rate : 84 b/s
Frame rate : 0.309 FPS
Count of elements : 444
Stream size : 14.9 KiB (0%)
Title : SDH
Language : Japanese
Default : No
Forced : No

Text #23
ID : 36
Format : UTF-8
Muxing mode : zlib
Codec ID : S_TEXT/UTF8
Codec ID/Info : UTF-8 Plain Text
Duration : 22 min 36 s
Bit rate : 60 b/s
Frame rate : 0.248 FPS
Count of elements : 337
Stream size : 10.0 KiB (0%)
Title : Brazilian
Language : Portuguese
Default : No
Forced : No

Text #24
ID : 37
Format : UTF-8
Muxing mode : zlib
Codec ID : S_TEXT/UTF8
Codec ID/Info : UTF-8 Plain Text
Duration : 22 min 36 s
Bit rate : 60 b/s
Frame rate : 0.249 FPS
Count of elements : 338
Stream size : 10.1 KiB (0%)
Title : European
Language : Portuguese
Default : No
Forced : No

Text #25
ID : 38
Format : UTF-8
Muxing mode : zlib
Codec ID : S_TEXT/UTF8
Codec ID/Info : UTF-8 Plain Text
Duration : 22 min 36 s
Bit rate : 56 b/s
Frame rate : 0.249 FPS
Count of elements : 338
Stream size : 9.43 KiB (0%)
Language : Polish
Default : No
Forced : No

Text #26
ID : 39
Format : UTF-8
Muxing mode : zlib
Codec ID : S_TEXT/UTF8
Codec ID/Info : UTF-8 Plain Text
Duration : 22 min 36 s
Bit rate : 57 b/s
Frame rate : 0.249 FPS
Count of elements : 338
Stream size : 9.50 KiB (0%)
Language : Dutch
Default : No
Forced : No

Text #27
ID : 40
Format : UTF-8
Muxing mode : zlib
Codec ID : S_TEXT/UTF8
Codec ID/Info : UTF-8 Plain Text
Duration : 22 min 36 s
Bit rate : 59 b/s
Frame rate : 0.248 FPS
Count of elements : 336
Stream size : 9.82 KiB (0%)
Language : Norwegian Bokmal
Default : No
Forced : No

Text #28
ID : 41
Format : UTF-8
Muxing mode : zlib
Codec ID : S_TEXT/UTF8
Codec ID/Info : UTF-8 Plain Text
Duration : 22 min 36 s
Bit rate : 60 b/s
Frame rate : 0.249 FPS
Count of elements : 338
Stream size : 10.1 KiB (0%)
Language : Finnish
Default : No
Forced : No

Text #29
ID : 42
Format : UTF-8
Muxing mode : zlib
Codec ID : S_TEXT/UTF8
Codec ID/Info : UTF-8 Plain Text
Duration : 22 min 36 s
Bit rate : 60 b/s
Frame rate : 0.249 FPS
Count of elements : 338
Stream size : 9.96 KiB (0%)
Language : Turkish
Default : No
Forced : No

Text #30
ID : 43
Format : UTF-8
Muxing mode : zlib
Codec ID : S_TEXT/UTF8
Codec ID/Info : UTF-8 Plain Text
Duration : 22 min 36 s
Bit rate : 59 b/s
Frame rate : 0.249 FPS
Count of elements : 338
Stream size : 9.83 KiB (0%)
Language : Swedish
Default : No
Forced : No

Text #31
ID : 44
Format : UTF-8
Muxing mode : zlib
Codec ID : S_TEXT/UTF8
Codec ID/Info : UTF-8 Plain Text
Duration : 22 min 36 s
Bit rate : 100 b/s
Frame rate : 0.245 FPS
Count of elements : 333
Stream size : 16.6 KiB (0%)
Language : Greek
Default : No
Forced : No

Text #32
ID : 45
Format : UTF-8
Muxing mode : zlib
Codec ID : S_TEXT/UTF8
Codec ID/Info : UTF-8 Plain Text
Duration : 22 min 36 s
Bit rate : 87 b/s
Frame rate : 0.249 FPS
Count of elements : 338
Stream size : 14.4 KiB (0%)
Language : Hebrew
Default : No
Forced : No

Text #33
ID : 46
Format : UTF-8
Muxing mode : zlib
Codec ID : S_TEXT/UTF8
Codec ID/Info : UTF-8 Plain Text
Duration : 22 min 36 s
Bit rate : 58 b/s
Frame rate : 0.249 FPS
Count of elements : 338
Stream size : 9.77 KiB (0%)
Language : Romanian
Default : No
Forced : No

Text #34
ID : 47
Format : UTF-8
Muxing mode : zlib
Codec ID : S_TEXT/UTF8
Codec ID/Info : UTF-8 Plain Text
Duration : 10 min 19 s
Bit rate : 1 b/s
Frame rate : 0.008 FPS
Count of elements : 5
Stream size : 113 Bytes (0%)
Title : Forced
Language : Indonesian
Default : No
Forced : Yes

Text #35
ID : 48
Format : UTF-8
Muxing mode : zlib
Codec ID : S_TEXT/UTF8
Codec ID/Info : UTF-8 Plain Text
Duration : 22 min 36 s
Bit rate : 61 b/s
Frame rate : 0.252 FPS
Count of elements : 342
Stream size : 10.1 KiB (0%)
Language : Indonesian
Default : No
Forced : No

Text #36
ID : 49
Format : UTF-8
Muxing mode : zlib
Codec ID : S_TEXT/UTF8
Codec ID/Info : UTF-8 Plain Text
Duration : 21 min 6 s
Bit rate : 76 b/s
Frame rate : 0.237 FPS
Count of elements : 300
Stream size : 11.8 KiB (0%)
Title : Dub
Language : Indonesian
Default : No
Forced : No

Text #37
ID : 50
Format : UTF-8
Muxing mode : zlib
Codec ID : S_TEXT/UTF8
Codec ID/Info : UTF-8 Plain Text
Duration : 10 min 10 s
Bit rate : 2 b/s
Frame rate : 0.007 FPS
Count of elements : 4
Stream size : 201 Bytes (0%)
Title : Forced
Language : Thai
Default : No
Forced : Yes

Text #38
ID : 51
Format : UTF-8
Muxing mode : zlib
Codec ID : S_TEXT/UTF8
Codec ID/Info : UTF-8 Plain Text
Duration : 22 min 36 s
Bit rate : 142 b/s
Frame rate : 0.254 FPS
Count of elements : 344
Stream size : 23.7 KiB (0%)
Language : Thai
Default : No
Forced : No

Text #39
ID : 52
Format : UTF-8
Muxing mode : zlib
Codec ID : S_TEXT/UTF8
Codec ID/Info : UTF-8 Plain Text
Duration : 22 min 36 s
Bit rate : 59 b/s
Frame rate : 0.251 FPS
Count of elements : 340
Stream size : 9.85 KiB (0%)
Language : Korean
Default : No
Forced : No

Text #40
ID : 53
Format : UTF-8
Muxing mode : zlib
Codec ID : S_TEXT/UTF8
Codec ID/Info : UTF-8 Plain Text
Duration : 22 min 36 s
Bit rate : 59 b/s
Frame rate : 0.249 FPS
Count of elements : 338
Stream size : 9.84 KiB (0%)
Language : Danish
Default : No
Forced : No

Text #41
ID : 54
Format : UTF-8
Muxing mode : zlib
Codec ID : S_TEXT/UTF8
Codec ID/Info : UTF-8 Plain Text
Duration : 22 min 36 s
Bit rate : 56 b/s
Frame rate : 0.249 FPS
Count of elements : 338
Stream size : 9.29 KiB (0%)
Title : Simplified
Language : Chinese
Default : No
Forced : No

Text #42
ID : 55
Format : UTF-8
Muxing mode : zlib
Codec ID : S_TEXT/UTF8
Codec ID/Info : UTF-8 Plain Text
Duration : 22 min 36 s
Bit rate : 56 b/s
Frame rate : 0.249 FPS
Count of elements : 338
Stream size : 9.37 KiB (0%)
Title : Traditional
Language : Chinese
Default : No
Forced : No

Text #43
ID : 56
Format : UTF-8
Muxing mode : zlib
Codec ID : S_TEXT/UTF8
Codec ID/Info : UTF-8 Plain Text
Duration : 22 min 36 s
Bit rate : 83 b/s
Frame rate : 0.245 FPS
Count of elements : 333
Stream size : 13.8 KiB (0%)
Language : Vietnamese
Default : No
Forced : No

Text #44
ID : 57
Format : UTF-8
Muxing mode : zlib
Codec ID : S_TEXT/UTF8
Codec ID/Info : UTF-8 Plain Text
Duration : 22 min 36 s
Bit rate : 99 b/s
Frame rate : 0.249 FPS
Count of elements : 338
Stream size : 16.5 KiB (0%)
Language : Ukrainian
Default : No
Forced : No

Text #45
ID : 58
Format : UTF-8
Muxing mode : zlib
Codec ID : S_TEXT/UTF8
Codec ID/Info : UTF-8 Plain Text
Duration : 22 min 36 s
Bit rate : 59 b/s
Frame rate : 0.249 FPS
Count of elements : 338
Stream size : 9.88 KiB (0%)
Language : Hungarian
Default : No
Forced : No

Text #46
ID : 59
Format : UTF-8
Muxing mode : zlib
Codec ID : S_TEXT/UTF8
Codec ID/Info : UTF-8 Plain Text
Duration : 22 min 36 s
Bit rate : 55 b/s
Frame rate : 0.249 FPS
Count of elements : 338
Stream size : 9.17 KiB (0%)
Language : Czech
Default : No
Forced : No

Text #47
ID : 60
Format : UTF-8
Muxing mode : zlib
Codec ID : S_TEXT/UTF8
Codec ID/Info : UTF-8 Plain Text
Duration : 22 min 36 s
Bit rate : 52 b/s
Frame rate : 0.249 FPS
Count of elements : 338
Stream size : 8.72 KiB (0%)
Language : Croatian
Default : No
Forced : No

Text #48
ID : 61
Format : UTF-8
Muxing mode : zlib
Codec ID : S_TEXT/UTF8
Codec ID/Info : UTF-8 Plain Text
Duration : 22 min 36 s
Bit rate : 62 b/s
Frame rate : 0.249 FPS
Count of elements : 338
Stream size : 10.4 KiB (0%)
Language : Malay
Default : No
Forced : No

Text #49
ID : 62
Format : UTF-8
Muxing mode : zlib
Codec ID : S_TEXT/UTF8
Codec ID/Info : UTF-8 Plain Text
Duration : 22 min 36 s
Bit rate : 61 b/s
Frame rate : 0.250 FPS
Count of elements : 339
Stream size : 10.1 KiB (0%)
Language : fil
Default : No
Forced : No

Text #50
ID : 63
Format : UTF-8
Muxing mode : zlib
Codec ID : S_TEXT/UTF8
Codec ID/Info : UTF-8 Plain Text
Duration : 10 min 10 s
Bit rate : 0 b/s
Frame rate : 0.007 FPS
Count of elements : 4
Stream size : 76.0 Bytes (0%)
Title : Latin (Forced)
Language : Hindi
Default : No
Forced : Yes

Text #51
ID : 64
Format : UTF-8
Muxing mode : zlib
Codec ID : S_TEXT/UTF8
Codec ID/Info : UTF-8 Plain Text
Duration : 23 min 59 s
Bit rate : 146 b/s
Frame rate : 0.236 FPS
Count of elements : 339
Stream size : 25.8 KiB (0%)
Language : Hindi
Default : No
Forced : No

Menu
00:00:00.000 : en:Intro
00:01:31.080 : en:Part 01
00:22:31.016 : en:Credits





Dungeon Meshi - 13 mkv


Dungeon Meshi - 13 mkv


Dungeon Meshi - 13 mkv


Dungeon Meshi - 13 mkv