Tags
Language
Tags

Ghost in the Shell - SAC 2045 (2020) S01 (1-12)

Posted By: silva1410
Ghost in the Shell - SAC 2045 (2020) S01 (1-12)

Ghost in the Shell - SAC 2045 (2020) S01 (1-12)
WEBRip | MKV | 1920x1080 | HEVC@ 5118 kb/s | 12 eps | 12x ~ 25mn | 11.8GB
Japanese AAC@768 Kbps | 6 channels | Subtitles: English
Genre: Action, Military, Sci-Fi, Police, Mecha, Seinen


Description:
* Based on Shirou Masamune's original 1989 cyberpunk action manga Ghost in the Shell.
In the year 2045, after an economic disaster known as the Synchronized Global Default, rapid developments in AI propelled the world to enter a state of "Sustainable War". However, the public is not aware of the threat that AI has towards the human race.

Full-body cyborg Major Kusanagi Motoko and her second-in-command Batou are former members of Public Security Section 9, who are now hired mercenaries traveling hot devastated American west coast. This land is full of opportunity for the major and her team, they utilize their enhanced cyberbrains and combat skills from their time working in Section 9. However, things get complicated with the emergence of "post humans," who have extreme intelligence and physical powers. The members of Section 9 comeback together again in order to face this new threat.



1 No Noise No Life: Sustainable War
2 At Your Own Risk: Divided by a Wall
3 Maverick: MIA
4 Sacrificial Pawn: Emissary from the Divide
5 Patrick Huge: Gift from God
6 Disclosure: Quantized Gospel
7 Pie in the Sky: First Bank Robbery
8 Assemble: What Came About as a Result of Togusa`s Death
9 Identity Theft: The Lonely Struggle
10 Net People: Reasons Leading to Flameout
11 Edgelord: The Revolution of the 14-year-olds
12 Nostalgia: All Will Become N


General
Unique ID : 186860257590947168097508580111902293712 (0x8C93F9FF3F9837CB6FF7F9A2D6A7BED0)
Complete name : [DragsterPS] Ghost in the Shell - SAC_2045 S01E01 [1080p] [HEVC] [Japanese Audio] [Multi-Subs] [48FBF7F5].mkv
Format : Matroska
Format version : Version 4
File size : 1.01 GiB
Duration : 24 min 37 s
Overall bit rate : 5 891 kb/s
Encoded date : UTC 2020-04-23 09:46:02
Writing application : mkvmerge v32.0.0 ('Astral Progressions') 32-bit
Writing library : libebml v1.3.7 + libmatroska v1.5.0

Video
ID : 1
Format : HEVC
Format/Info : High Efficiency Video Coding
Format profile : Main 10@L4@Main
Codec ID : V_MPEGH/ISO/HEVC
Duration : 24 min 37 s
Bit rate : 5 118 kb/s
Width : 1 920 pixels
Height : 1 080 pixels
Display aspect ratio : 16:9
Frame rate mode : Constant
Frame rate : 23.976 (24000/1001) FPS
Color space : YUV
Chroma subsampling : 4:2:0
Bit depth : 10 bits
Bits/(Pixel*Frame) : 0.103
Stream size : 901 MiB (87%)
Default : Yes
Forced : No
Color range : Limited
Color primaries : BT.709
Transfer characteristics : BT.709
Matrix coefficients : BT.709

Audio
ID : 2
Format : E-AC-3 JOC
Format/Info : Enhanced AC-3 with Joint Object Coding
Commercial name : Dolby Digital Plus with Dolby Atmos
Codec ID : A_EAC3
Duration : 24 min 37 s
Bit rate mode : Constant
Bit rate : 768 kb/s
Channel(s) : 6 channels
Channel layout : L R C LFE Ls Rs
Sampling rate : 48.0 kHz
Frame rate : 31.250 FPS (1536 SPF)
Compression mode : Lossy
Stream size : 135 MiB (13%)
Title : Japanese
Language : Japanese
Service kind : Complete Main
Default : No
Forced : No
Complexity index : 16
Number of dynamic objects : 15
Bed channel count : 1 channel
Bed channel configuration : LFE

Text #1
ID : 3
Format : UTF-8
Codec ID : S_TEXT/UTF8
Codec ID/Info : UTF-8 Plain Text
Duration : 20 min 55 s
Bit rate : 61 b/s
Count of elements : 240
Stream size : 9.45 KiB (0%)
Title : English [Full]
Language : English
Default : No
Forced : No

Text #2
ID : 4
Format : UTF-8
Codec ID : S_TEXT/UTF8
Codec ID/Info : UTF-8 Plain Text
Duration : 24 min 5 s
Bit rate : 47 b/s
Count of elements : 239
Stream size : 8.47 KiB (0%)
Title : Castilian [Full]
Language : Spanish
Default : No
Forced : No

Text #3
ID : 5
Format : UTF-8
Codec ID : S_TEXT/UTF8
Codec ID/Info : UTF-8 Plain Text
Duration : 24 min 5 s
Bit rate : 48 b/s
Count of elements : 234
Stream size : 8.61 KiB (0%)
Title : Spanish [Full]
Language : Spanish
Default : No
Forced : No

Text #4
ID : 6
Format : UTF-8
Codec ID : S_TEXT/UTF8
Codec ID/Info : UTF-8 Plain Text
Duration : 24 min 5 s
Bit rate : 51 b/s
Count of elements : 236
Stream size : 9.06 KiB (0%)
Title : French [Full]
Language : French
Default : No
Forced : No

Text #5
ID : 7
Format : UTF-8
Codec ID : S_TEXT/UTF8
Codec ID/Info : UTF-8 Plain Text
Duration : 24 min 5 s
Bit rate : 49 b/s
Count of elements : 238
Stream size : 8.67 KiB (0%)
Title : German [Full]
Language : German
Default : No
Forced : No

Text #6
ID : 8
Format : UTF-8
Codec ID : S_TEXT/UTF8
Codec ID/Info : UTF-8 Plain Text
Duration : 24 min 5 s
Bit rate : 50 b/s
Count of elements : 238
Stream size : 8.89 KiB (0%)
Title : Italian [Full]
Language : Italian
Default : No
Forced : No

Text #7
ID : 9
Format : UTF-8
Codec ID : S_TEXT/UTF8
Codec ID/Info : UTF-8 Plain Text
Duration : 24 min 5 s
Bit rate : 50 b/s
Count of elements : 235
Stream size : 8.86 KiB (0%)
Title : Portuguese [Full]
Language : Portuguese
Default : No
Forced : No

Text #8
ID : 10
Format : UTF-8
Codec ID : S_TEXT/UTF8
Codec ID/Info : UTF-8 Plain Text
Duration : 23 min 58 s
Bit rate : 49 b/s
Count of elements : 235
Stream size : 8.77 KiB (0%)
Title : Brazilian Portuguese [Full]
Language : Portuguese
Default : No
Forced : No

Text #9
ID : 11
Format : UTF-8
Codec ID : S_TEXT/UTF8
Codec ID/Info : UTF-8 Plain Text
Duration : 24 min 5 s
Bit rate : 47 b/s
Count of elements : 240
Stream size : 8.33 KiB (0%)
Title : Polish [Full]
Language : Polish
Default : No
Forced : No

Text #10
ID : 12
Format : UTF-8
Codec ID : S_TEXT/UTF8
Codec ID/Info : UTF-8 Plain Text
Duration : 24 min 5 s
Bit rate : 48 b/s
Count of elements : 240
Stream size : 8.53 KiB (0%)
Title : Turkish [Full]
Language : Turkish
Default : No
Forced : No

Text #11
ID : 13
Format : UTF-8
Codec ID : S_TEXT/UTF8
Codec ID/Info : UTF-8 Plain Text
Duration : 22 min 48 s
Bit rate : 52 b/s
Count of elements : 216
Stream size : 8.69 KiB (0%)
Title : Swedish [Full]
Language : Swedish
Default : No
Forced : No

Text #12
ID : 14
Format : UTF-8
Codec ID : S_TEXT/UTF8
Codec ID/Info : UTF-8 Plain Text
Duration : 23 min 55 s
Bit rate : 44 b/s
Count of elements : 218
Stream size : 7.80 KiB (0%)
Title : Danish [Full]
Language : Danish
Default : No
Forced : No

Text #13
ID : 15
Format : UTF-8
Codec ID : S_TEXT/UTF8
Codec ID/Info : UTF-8 Plain Text
Duration : 24 min 5 s
Bit rate : 46 b/s
Count of elements : 215
Stream size : 8.26 KiB (0%)
Title : Finnish [Full]
Language : Finnish
Default : No
Forced : No

Text #14
ID : 16
Format : UTF-8
Codec ID : S_TEXT/UTF8
Codec ID/Info : UTF-8 Plain Text
Duration : 24 min 5 s
Bit rate : 42 b/s
Count of elements : 231
Stream size : 7.53 KiB (0%)
Title : Dutch [Full]
Language : Dutch
Default : No
Forced : No

Text #15
ID : 17
Format : UTF-8
Codec ID : S_TEXT/UTF8
Codec ID/Info : UTF-8 Plain Text
Duration : 24 min 4 s
Bit rate : 49 b/s
Count of elements : 217
Stream size : 8.68 KiB (0%)
Title : Norwegian [Full]
Language : Norwegian
Default : No
Forced : No

Text #16
ID : 18
Format : UTF-8
Codec ID : S_TEXT/UTF8
Codec ID/Info : UTF-8 Plain Text
Duration : 24 min 5 s
Bit rate : 71 b/s
Count of elements : 263
Stream size : 12.7 KiB (0%)
Title : Russian [Full]
Language : Russian
Default : No
Forced : No

Text #17
ID : 19
Format : UTF-8
Codec ID : S_TEXT/UTF8
Codec ID/Info : UTF-8 Plain Text
Duration : 24 min 5 s
Bit rate : 46 b/s
Count of elements : 239
Stream size : 8.24 KiB (0%)
Title : Hungarian [Full]
Language : Hungarian
Default : No
Forced : No

Text #18
ID : 20
Format : UTF-8
Codec ID : S_TEXT/UTF8
Codec ID/Info : UTF-8 Plain Text
Duration : 24 min 4 s
Bit rate : 88 b/s
Count of elements : 248
Stream size : 15.7 KiB (0%)
Title : Greek [Full]
Language : Greek
Default : No
Forced : No

Text #19
ID : 21
Format : UTF-8
Codec ID : S_TEXT/UTF8
Codec ID/Info : UTF-8 Plain Text
Duration : 22 min 40 s
Bit rate : 76 b/s
Count of elements : 239
Stream size : 12.7 KiB (0%)
Title : Hebrew [Full]
Language : Hebrew
Default : No
Forced : No

Text #20
ID : 22
Format : UTF-8
Codec ID : S_TEXT/UTF8
Codec ID/Info : UTF-8 Plain Text
Duration : 24 min 5 s
Bit rate : 79 b/s
Count of elements : 238
Stream size : 14.1 KiB (0%)
Title : Arabic [Full]
Language : Arabic
Default : No
Forced : No

Text #21
ID : 23
Format : UTF-8
Codec ID : S_TEXT/UTF8
Codec ID/Info : UTF-8 Plain Text
Duration : 24 min 5 s
Bit rate : 52 b/s
Count of elements : 236
Stream size : 9.27 KiB (0%)
Title : Romanian [Full]
Language : Romanian
Default : No
Forced : No

Text #22
ID : 24
Format : UTF-8
Codec ID : S_TEXT/UTF8
Codec ID/Info : UTF-8 Plain Text
Duration : 24 min 5 s
Bit rate : 47 b/s
Count of elements : 238
Stream size : 8.37 KiB (0%)
Title : Czech [Full]
Language : Czech
Default : No
Forced : No

Text #23
ID : 25
Format : UTF-8
Codec ID : S_TEXT/UTF8
Codec ID/Info : UTF-8 Plain Text
Duration : 24 min 5 s
Bit rate : 47 b/s
Count of elements : 240
Stream size : 8.40 KiB (0%)
Title : Indonesian [Full]
Language : Indonesian
Default : No
Forced : No

Text #24
ID : 26
Format : UTF-8
Codec ID : S_TEXT/UTF8
Codec ID/Info : UTF-8 Plain Text
Duration : 24 min 5 s
Bit rate : 65 b/s
Count of elements : 240
Stream size : 11.5 KiB (0%)
Title : Vietnamese [Full]
Language : Vietnamese
Default : No
Forced : No

Text #25
ID : 27
Format : UTF-8
Codec ID : S_TEXT/UTF8
Codec ID/Info : UTF-8 Plain Text
Duration : 24 min 5 s
Bit rate : 115 b/s
Count of elements : 239
Stream size : 20.3 KiB (0%)
Title : Thai [Full]
Language : Thai
Default : No
Forced : No

Text #26
ID : 28
Format : UTF-8
Codec ID : S_TEXT/UTF8
Codec ID/Info : UTF-8 Plain Text
Duration : 24 min 5 s
Bit rate : 57 b/s
Count of elements : 238
Stream size : 10.2 KiB (0%)
Title : Korean [Full]
Language : Korean
Default : No
Forced : No

Text #27
ID : 29
Format : UTF-8
Codec ID : S_TEXT/UTF8
Codec ID/Info : UTF-8 Plain Text
Duration : 24 min 5 s
Bit rate : 47 b/s
Count of elements : 241
Stream size : 8.40 KiB (0%)
Title : Chinese (Simplified) [Full]
Language : Chinese
Default : No
Forced : No

Text #28
ID : 30
Format : UTF-8
Codec ID : S_TEXT/UTF8
Codec ID/Info : UTF-8 Plain Text
Duration : 24 min 5 s
Bit rate : 46 b/s
Count of elements : 236
Stream size : 8.25 KiB (0%)
Title : Chinese (Traditional) [Full]
Language : Chinese
Default : No
Forced : No

Text #29
ID : 31
Format : UTF-8
Codec ID : S_TEXT/UTF8
Codec ID/Info : UTF-8 Plain Text
Duration : 22 min 34 s
Bit rate : 85 b/s
Count of elements : 302
Stream size : 14.1 KiB (0%)
Title : Japanese [Full]
Language : Japanese
Default : No
Forced : No



Screenshots

Ghost in the Shell - SAC 2045 (2020) S01 (1-12)

Ghost in the Shell - SAC 2045 (2020) S01 (1-12)

Ghost in the Shell - SAC 2045 (2020) S01 (1-12)