Tags
Language
Tags
July 2024
Su Mo Tu We Th Fr Sa
30 1 2 3 4 5 6
7 8 9 10 11 12 13
14 15 16 17 18 19 20
21 22 23 24 25 26 27
28 29 30 31 1 2 3

Hibike! Euphonium - S03E07

Posted By: Otaku
Hibike! Euphonium - S03E07

Hibike! Euphonium - S03E07
MKV | 1920x1080 | 日本語 | H265 @ 1806 kbps | AAC @ 128.0 kbps | 24 min 57 s | 349 MiB
Subtitles: Português, English, العربية, Русский, Español, Italiano, Deutsch, Français



[DKB] Hibike! Euphonium - S03E07 [1080p][HEVC x265 10bit][Multi-Subs].mkv (349.5 MB)



General
Unique ID : 68416270818658276736289872607417136834 (0x33787E95471395E632E40E63A936F6C2)
Complete name : ./[DKB] Hibike! Euphonium - S03E07 [1080p][HEVC x265 10bit][Multi-Subs].mkv
Format : Matroska
Format version : Version 4
File size : 349 MiB
Duration : 24 min 57 s
Overall bit rate : 1 958 kb/s
Encoded date : UTC 2024-05-19 11:42:30
Writing application : mkvmerge v83.0 ('Circle Of Friends') 64-bit
Writing library : libebml v1.4.5 + libmatroska v1.7.1
Attachments : AdobeArabic-Bold.otf / arial.ttf / arialbd.ttf / comic.ttf / georgia.ttf / georgiab.ttf / georgiaz.ttf / tahoma.ttf / times.ttf / trebuc.ttf / trebucbd.ttf / verdana.ttf / verdanab.ttf

Video
ID : 1
Format : HEVC
Format/Info : High Efficiency Video Coding
Format profile : Main 10@L5@Main
Codec ID : V_MPEGH/ISO/HEVC
Duration : 24 min 57 s
Bit rate : 1 806 kb/s
Width : 1 920 pixels
Height : 1 080 pixels
Display aspect ratio : 16:9
Frame rate mode : Constant
Frame rate : 23.976 (24000/1001) FPS
Color space : YUV
Chroma subsampling : 4:2:0
Bit depth : 10 bits
Bits/(Pixel*Frame) : 0.036
Stream size : 322 MiB (92%)
Title : [DKB Team]
Writing library : x265 3.6+2+13-9a3dac6e5:[Windows][MSVC 1937][64 bit] 10bit
Encoding settings : cpuid=1111039 / frame-threads=5 / numa-pools=24 / wpp / no-pmode / no-pme / no-psnr / no-ssim / log-level=2 / input-csp=1 / input-res=1920x1080 / interlace=0 / total-frames=35893 / level-idc=0 / high-tier=1 / uhd-bd=0 / ref=6 / no-allow-non-conformance / no-repeat-headers / annexb / no-aud / no-eob / no-eos / no-hrd / info / hash=0 / temporal-layers=0 / open-gop / min-keyint=24 / keyint=250 / gop-lookahead=0 / bframes=8 / b-adapt=2 / b-pyramid / bframe-bias=0 / rc-lookahead=120 / lookahead-slices=4 / scenecut=40 / no-hist-scenecut / radl=0 / no-splice / no-intra-refresh / ctu=64 / min-cu-size=8 / rect / no-amp / max-tu-size=32 / tu-inter-depth=1 / tu-intra-depth=1 / limit-tu=0 / rdoq-level=2 / dynamic-rd=0.00 / no-ssim-rd / signhide / no-tskip / nr-intra=0 / nr-inter=0 / no-constrained-intra / strong-intra-smoothing / max-merge=3 / limit-refs=3 / limit-modes / me=2 / subme=3 / merange=57 / temporal-mvp / no-frame-dup / hme / Level / merange / L0,L1,L2=16,32,57 / weightp / weightb / no-analyze-src-pics / deblock=-1:-1 / sao / no-sao-non-deblock / rd=4 / selective-sao=4 / no-early-skip / rskip / no-fast-intra / no-tskip-fast / no-cu-lossless / no-b-intra / no-splitrd-skip / rdpenalty=0 / psy-rd=0.90 / psy-rdoq=1.35 / no-rd-refine / no-lossless / cbqpoffs=-1 / crqpoffs=-1 / rc=crf / crf=20.1 / qcomp=0.72 / qpstep=4 / stats-write=0 / stats-read=0 / ipratio=1.40 / pbratio=1.30 / aq-mode=3 / aq-strength=1.00 / aq-bias-strength=1.00 / cutree / zone-count=0 / no-strict-cbr / qg-size=32 / no-rc-grain / qpmax=69 / qpmin=0 / no-const-vbv / sar=0 / overscan=0 / videoformat=5 / range=0 / colorprim=1 / transfer=1 / colormatrix=1 / chromaloc=0 / display-window=0 / cll=0,0 / min-luma=0 / max-luma=1023 / log2-max-poc-lsb=8 / vui-timing-info / vui-hrd-info / slices=1 / no-opt-qp-pps / no-opt-ref-list-length-pps / no-multi-pass-opt-rps / scenecut-bias=0.05 / no-opt-cu-delta-qp / no-aq-motion / no-hdr10 / no-hdr10-opt / no-dhdr10-opt / no-idr-recovery-sei / analysis-reuse-level=0 / analysis-save-reuse-level=0 / analysis-load-reuse-level=0 / scale-factor=0 / refine-intra=0 / refine-inter=0 / refine-mv=1 / refine-ctu-distortion=0 / no-limit-sao / ctu-info=0 / no-lowpass-dct / refine-analysis-type=0 / copy-pic=1 / max-ausize-factor=1.0 / no-dynamic-refine / no-single-sei / no-hevc-aq / no-svt / no-field / qp-adaptation-range=1.00 / scenecut-aware-qp=0 / conformance-window-offsets / right=0 / bottom=0 / decoder-max-rate=0 / no-vbv-live-multi-pass / no-mcstf / no-sbrc
Default : Yes
Forced : No
Color range : Limited
Color primaries : BT.709
Transfer characteristics : BT.709
Matrix coefficients : BT.709

Audio
ID : 2
Format : AAC LC
Format/Info : Advanced Audio Codec Low Complexity
Codec ID : A_AAC-2
Duration : 24 min 57 s
Bit rate : 128 kb/s
Channel(s) : 2 channels
Channel layout : L R
Sampling rate : 44.1 kHz
Frame rate : 43.066 FPS (1024 SPF)
Compression mode : Lossy
Stream size : 22.8 MiB (7%)
Title : Japanese
Language : Japanese
Default : No
Forced : No

Text #1
ID : 3
Format : ASS
Codec ID : S_TEXT/ASS
Codec ID/Info : Advanced Sub Station Alpha
Duration : 23 min 22 s
Bit rate : 184 b/s
Frame rate : 0.324 FPS
Count of elements : 455
Compression mode : Lossless
Stream size : 31.6 KiB (0%)
Title : English / English(US)
Language : English
Default : Yes
Forced : No

Text #2
ID : 4
Format : ASS
Codec ID : S_TEXT/ASS
Codec ID/Info : Advanced Sub Station Alpha
Duration : 24 min 52 s
Bit rate : 167 b/s
Frame rate : 0.278 FPS
Count of elements : 415
Compression mode : Lossless
Stream size : 30.6 KiB (0%)
Title : Spanish (Latin American) / Español (América Latina)
Language : Spanish
Default : No
Forced : No

Text #3
ID : 5
Format : ASS
Codec ID : S_TEXT/ASS
Codec ID/Info : Advanced Sub Station Alpha
Duration : 24 min 52 s
Bit rate : 167 b/s
Frame rate : 0.278 FPS
Count of elements : 415
Compression mode : Lossless
Stream size : 30.5 KiB (0%)
Title : Spanish / Español (España)
Language : Spanish
Default : No
Forced : No

Text #4
ID : 6
Format : ASS
Codec ID : S_TEXT/ASS
Codec ID/Info : Advanced Sub Station Alpha
Duration : 24 min 52 s
Bit rate : 170 b/s
Frame rate : 0.271 FPS
Count of elements : 405
Compression mode : Lossless
Stream size : 31.1 KiB (0%)
Title : French / Français (France)
Language : French
Default : No
Forced : No

Text #5
ID : 7
Format : ASS
Codec ID : S_TEXT/ASS
Codec ID/Info : Advanced Sub Station Alpha
Duration : 23 min 22 s
Bit rate : 190 b/s
Frame rate : 0.324 FPS
Count of elements : 455
Compression mode : Lossless
Stream size : 32.6 KiB (0%)
Title : Portuguese (Brazilian) / Português (Brasil)
Language : Portuguese
Default : No
Forced : No

Text #6
ID : 8
Format : ASS
Codec ID : S_TEXT/ASS
Codec ID/Info : Advanced Sub Station Alpha
Duration : 23 min 22 s
Bit rate : 205 b/s
Frame rate : 0.307 FPS
Count of elements : 431
Compression mode : Lossless
Stream size : 35.2 KiB (0%)
Title : Arabic / العربية
Language : Arabic
Default : No
Forced : No

Text #7
ID : 9
Format : ASS
Codec ID : S_TEXT/ASS
Codec ID/Info : Advanced Sub Station Alpha
Duration : 23 min 22 s
Bit rate : 197 b/s
Frame rate : 0.331 FPS
Count of elements : 464
Compression mode : Lossless
Stream size : 33.9 KiB (0%)
Title : Italian / Italiano
Language : Italian
Default : No
Forced : No

Text #8
ID : 10
Format : ASS
Codec ID : S_TEXT/ASS
Codec ID/Info : Advanced Sub Station Alpha
Duration : 23 min 41 s
Bit rate : 212 b/s
Frame rate : 0.291 FPS
Count of elements : 413
Compression mode : Lossless
Stream size : 36.9 KiB (0%)
Title : German / Deutsch
Language : German
Default : No
Forced : No

Text #9
ID : 11
Format : ASS
Codec ID : S_TEXT/ASS
Codec ID/Info : Advanced Sub Station Alpha
Duration : 23 min 22 s
Bit rate : 274 b/s
Frame rate : 0.338 FPS
Count of elements : 474
Compression mode : Lossless
Stream size : 47.0 KiB (0%)
Title : Russian / Русский
Language : Russian
Default : No
Forced : No

Menu
00:00:00.000 : en:Recap Start / en:Prologue
00:00:12.000 : en:Recap End
00:00:13.000 : en:Opening
00:01:41.000 : en:Episode
00:23:26.000 : en:Credits Start
00:24:57.000 : en:Credits End





Hibike! Euphonium - S03E07


Hibike! Euphonium - S03E07


Hibike! Euphonium - S03E07


Hibike! Euphonium - S03E07