Tags
Language
Tags
July 2024
Su Mo Tu We Th Fr Sa
30 1 2 3 4 5 6
7 8 9 10 11 12 13
14 15 16 17 18 19 20
21 22 23 24 25 26 27
28 29 30 31 1 2 3

Kaijuu 8-gou S01E07 (WEB 1080p AV1 AAC

Posted By: Otaku
Kaijuu 8-gou S01E07 (WEB 1080p AV1 AAC

Kaijuu 8-gou S01E07 (WEB 1080p AV1 AAC
MKV | 1920x1080 | English / 日本語 | V_AV1 @ 1525 kbps | AAC @ 128.0 kbps | 23 min 40 s | 305 MiB
Subtitles: English, Русский, Português, العربية, Deutsch, Español, Italiano, Français



[Trix] Kaijuu 8-gou S01E07 (WEB 1080p AV1 AAC) [Multi Subs] [6CF37113].mkv (305.4 MB)



General
Unique ID : 293470449026221460619242799262000740760 (0xDCC85A4130E9F3B0707005700693F998)
Complete name : ./[Trix] Kaijuu 8-gou S01E07 (WEB 1080p AV1 AAC) [Multi Subs] [6CF37113].mkv
Format : Matroska
Format version : Version 4
File size : 305 MiB
Duration : 23 min 40 s
Overall bit rate : 1 804 kb/s
Encoded date : UTC 2024-05-25 15:05:16
Writing application : Auto-Release Script v3.3
Writing library : Auto-Release Script v3.3
Encoding settings : SVT-AV1-PSY (v2.0.0): " –preset 4 –crf 27 –film-grain 0 –film-grain-denoise 0 –tune 2 –keyint 0 –scm 0 –enable-qm 1 –qm-min 0 –qm-max 15 –rc 0 –enable-tf 0 –color-primaries 1 –transfer-characteristics 1 –matrix-coefficients 1 " + grav1synth –iso 400 + auto-boost algorithm 2.0 /
Attachments : AdobeArabic-Bold.otf / arial.ttf / ariblk.ttf / arialbd.ttf / comic.ttf / DejaVuSans-Bold.ttf / impact.ttf / NotoSans-Medium.ttf / tahoma.ttf / times.ttf / trebuc.ttf / trebucbd.ttf / verdana.ttf / verdanab.ttf

Video
ID : 1
Format : AV1
Format/Info : AOMedia Video 1
Format profile : Main@L4.0
Codec ID : V_AV1
Duration : 23 min 40 s
Bit rate : 1 526 kb/s
Width : 1 920 pixels
Height : 1 080 pixels
Display aspect ratio : 16:9
Frame rate mode : Constant
Frame rate : 23.976 (23976/1000) FPS
Color space : YUV
Chroma subsampling : 4:2:0
Bit depth : 10 bits
Bits/(Pixel*Frame) : 0.031
Stream size : 258 MiB (85%)
Title : By Trix
Default : Yes
Forced : No
Color range : Limited
Color primaries : BT.709
Transfer characteristics : BT.709
Matrix coefficients : BT.709

Audio #1
ID : 2
Format : AAC LC
Format/Info : Advanced Audio Codec Low Complexity
Codec ID : A_AAC-2
Duration : 23 min 40 s
Bit rate : 128 kb/s
Channel(s) : 2 channels
Channel layout : L R
Sampling rate : 44.1 kHz
Frame rate : 43.066 FPS (1024 SPF)
Compression mode : Lossy
Stream size : 21.7 MiB (7%)
Title : Japanese
Language : Japanese
Default : Yes
Forced : No

Audio #2
ID : 3
Format : AAC LC
Format/Info : Advanced Audio Codec Low Complexity
Codec ID : A_AAC-2
Duration : 23 min 40 s
Bit rate : 128 kb/s
Channel(s) : 2 channels
Channel layout : L R
Sampling rate : 44.1 kHz
Frame rate : 43.066 FPS (1024 SPF)
Compression mode : Lossy
Stream size : 21.7 MiB (7%)
Title : English - AAC 2.0
Language : English
Default : No
Forced : No

Text #1
ID : 4
Format : ASS
Codec ID : S_TEXT/ASS
Codec ID/Info : Advanced Sub Station Alpha
Duration : 22 min 8 s
Bit rate : 133 b/s
Frame rate : 0.246 FPS
Count of elements : 327
Compression mode : Lossless
Stream size : 21.7 KiB (0%)
Title : English
Language : English
Default : Yes
Forced : No

Text #2
ID : 5
Format : ASS
Codec ID : S_TEXT/ASS
Codec ID/Info : Advanced Sub Station Alpha
Duration : 22 min 8 s
Bit rate : 168 b/s
Frame rate : 0.246 FPS
Count of elements : 327
Compression mode : Lossless
Stream size : 27.3 KiB (0%)
Title : Arabic
Language : Arabic
Default : No
Forced : No

Text #3
ID : 6
Format : ASS
Codec ID : S_TEXT/ASS
Codec ID/Info : Advanced Sub Station Alpha
Duration : 22 min 23 s
Bit rate : 147 b/s
Frame rate : 0.230 FPS
Count of elements : 309
Compression mode : Lossless
Stream size : 24.2 KiB (0%)
Title : German
Language : German
Default : No
Forced : No

Text #4
ID : 7
Format : ASS
Codec ID : S_TEXT/ASS
Codec ID/Info : Advanced Sub Station Alpha
Duration : 22 min 8 s
Bit rate : 122 b/s
Frame rate : 0.224 FPS
Count of elements : 298
Compression mode : Lossless
Stream size : 19.9 KiB (0%)
Title : Spanish
Language : Spanish
Default : No
Forced : No

Text #5
ID : 8
Format : ASS
Codec ID : S_TEXT/ASS
Codec ID/Info : Advanced Sub Station Alpha
Duration : 22 min 8 s
Bit rate : 122 b/s
Frame rate : 0.224 FPS
Count of elements : 297
Compression mode : Lossless
Stream size : 19.8 KiB (0%)
Title : Spanish (Latin America)
Language : Spanish
Default : No
Forced : No

Text #6
ID : 9
Format : ASS
Codec ID : S_TEXT/ASS
Codec ID/Info : Advanced Sub Station Alpha
Duration : 23 min 32 s
Bit rate : 129 b/s
Frame rate : 0.229 FPS
Count of elements : 323
Compression mode : Lossless
Stream size : 22.3 KiB (0%)
Title : French
Language : French
Default : No
Forced : No

Text #7
ID : 10
Format : ASS
Codec ID : S_TEXT/ASS
Codec ID/Info : Advanced Sub Station Alpha
Duration : 22 min 8 s
Bit rate : 139 b/s
Frame rate : 0.275 FPS
Count of elements : 365
Compression mode : Lossless
Stream size : 22.7 KiB (0%)
Title : Italian
Language : Italian
Default : No
Forced : No

Text #8
ID : 11
Format : ASS
Codec ID : S_TEXT/ASS
Codec ID/Info : Advanced Sub Station Alpha
Duration : 22 min 12 s
Bit rate : 134 b/s
Frame rate : 0.246 FPS
Count of elements : 328
Compression mode : Lossless
Stream size : 21.8 KiB (0%)
Title : Portuguese (Brazil)
Language : Portuguese
Default : No
Forced : No

Text #9
ID : 12
Format : ASS
Codec ID : S_TEXT/ASS
Codec ID/Info : Advanced Sub Station Alpha
Duration : 22 min 8 s
Bit rate : 239 b/s
Frame rate : 0.258 FPS
Count of elements : 343
Compression mode : Lossless
Stream size : 38.9 KiB (0%)
Title : Russian
Language : Russian
Default : No
Forced : No

Menu #1
00:00:00.000 : en:Prologue
00:02:34.000 : en:Intro
00:04:04.000 : en:Part A
00:22:10.000 : en:Credits

Menu #2
00:00:00.000 : en:Prologue
00:02:34.000 : en:Intro
00:04:04.000 : en:Part A
00:22:10.000 : en:Credits

Menu #3
00:00:00.000 : en:Prologue
00:02:34.000 : en:Intro
00:04:04.000 : en:Part A
00:22:10.000 : en:Credits

Menu #4
00:00:00.000 : en:Prologue
00:02:34.000 : en:Intro
00:04:04.000 : en:Part A
00:22:10.000 : en:Credits

Menu #5
00:00:00.000 : en:Prologue
00:02:34.000 : en:Intro
00:04:04.000 : en:Part A
00:22:10.000 : en:Credits

Menu #6
00:00:00.000 : en:Prologue
00:02:34.000 : en:Intro
00:04:04.000 : en:Part A
00:22:10.000 : en:Credits

Menu #7
00:00:00.000 : en:Prologue
00:02:34.000 : en:Intro
00:04:04.000 : en:Part A
00:22:10.000 : en:Credits

Menu #8
00:00:00.000 : en:Prologue
00:02:34.000 : en:Intro
00:04:04.000 : en:Part A
00:22:10.000 : en:Credits

Menu #9
00:00:00.000 : en:Prologue
00:02:34.000 : en:Intro
00:04:04.000 : en:Part A
00:22:10.000 : en:Credits

Menu #10
00:00:00.000 : en:Prologue
00:02:34.000 : en:Intro
00:04:04.000 : en:Part A
00:22:10.000 : en:Credits

Menu #11
00:00:00.000 : en:Prologue
00:02:34.000 : en:Intro
00:04:04.000 : en:Part A
00:22:10.000 : en:Credits





Kaijuu 8-gou S01E07 (WEB 1080p AV1 AAC


Kaijuu 8-gou S01E07 (WEB 1080p AV1 AAC


Kaijuu 8-gou S01E07 (WEB 1080p AV1 AAC


Kaijuu 8-gou S01E07 (WEB 1080p AV1 AAC