Tags
Language
Tags
July 2024
Su Mo Tu We Th Fr Sa
30 1 2 3 4 5 6
7 8 9 10 11 12 13
14 15 16 17 18 19 20
21 22 23 24 25 26 27
28 29 30 31 1 2 3

Lycoris Recoil - S01E07

Posted By: Otaku
Lycoris Recoil - S01E07

Lycoris Recoil - S01E07
MKV | 1920x1080 | 日本語 | H265 @ 4552 kbps | FLAC @ 1398.282 kbps | 24 min 2 s | 1.01 GiB



Lycoris Recoil - S01E07 [BD 1080p HEVC 10bit FLAC] [Goldfire].mkv (1.0 GB)



General
Unique ID : 269192531087134810959240184805140936970 (0xCA84987C08BC1E292A604F291ABB390A)
Complete name : ./Lycoris Recoil - S01E07 [BD 1080p HEVC 10bit FLAC] [Goldfire].mkv
Format : Matroska
Format version : Version 4
File size : 1.01 GiB
Duration : 24 min 2 s
Overall bit rate mode : Variable
Overall bit rate : 5 989 kb/s
Encoded date : UTC 2024-05-08 03:25:31
Writing application : mkvmerge v84.0 ('Sleeper') 64-bit
Writing library : libebml v1.4.5 + libmatroska v1.7.1
Attachments : COMMIESANS-MEDIUM.TTF / COMMIESANS-MEDIUMIT.TTF / ADRIPPINGMARKER.TTF / ArnoPro-Regular.otf / BaiJamjuree-Regular.ttf / Bloody.ttf / Dosis-Bold.ttf / ebrima.ttf / Oxanium-SemiBold.ttf / ALLER.TTF / A-OTF-Jun34Pro-Medium-Kami.ttf / ARIAL.TTF

Video
ID : 1
Format : HEVC
Format/Info : High Efficiency Video Coding
Format profile : Main 10@L4.1@High
Codec ID : V_MPEGH/ISO/HEVC
Duration : 24 min 2 s
Bit rate : 4 552 kb/s
Width : 1 920 pixels
Height : 1 080 pixels
Display aspect ratio : 16:9
Frame rate mode : Constant
Frame rate : 23.976 (24000/1001) FPS
Color space : YUV
Chroma subsampling : 4:2:0
Bit depth : 10 bits
Bits/(Pixel*Frame) : 0.092
Stream size : 783 MiB (76%)
Writing library : x265 3.5+97-ga456c6e73+3-g87155154d:[Windows][clang 15.0.7][64 bit] Kyouko 10bit+8bit+12bit
Encoding settings : rc=crf / crf=15.0000 / qcomp=0.67 / qpstep=4 / stats-write=0 / stats-read=0 / vbv-maxrate=36000 / vbv-bufsize=42000 / vbv-init=0.9 / min-vbv-fullness=50.0 / max-vbv-fullness=80.0 / crf-max=0.0 / crf-min=0.0 / qscale-mode=0 / no-lossless / no-cu-lossless / aq-mode=3 / no-limit-aq1 / aq-strength=0.84 / aq-bias-strength=1.00 / limit-aq1-strength=1.00 / cbqpoffs=-3 / crqpoffs=-3 / ipratio=1.40 / pbratio=1.20 / psy-rd=2.00 / psy-rdoq=0.90 / psy-bscale=300 / psy-pscale=256 / psy-iscale=96 / deblock=-1:-1 / ref=5 / limit-refs=1 / no-limit-modes / bframes=8 / b-adapt=2 / bframe-bias=0 / b-pyramid / b-intra / weightp / weightb / min-keyint=1 / max-keyint=240 / rc-lookahead=80 / gop-lookahead=0 / scenecut=40 / hist-scenecut=0 / radl=0 / max-cu-size=32 / min-cu-size=8 / me=3 / subme=5 / merange=38 / rdoq-level=1 / rd=5 / rdpenalty=0 / dynamic-rd=0.00 / no-rd-refine / ––- / cutree / cutree-strength=1.65 / cutree-minqpoffs=-69.00 / cutree-maxqpoffs=69.00 / no-sao / rect / no-amp / no-open-gop / wpp / no-pmode / no-pme / no-psnr / no-ssim / nr-intra=0 / nr-inter=0 / no-constrained-intra / no-strong-intra-smoothing / max-tu-size=16 / tu-inter-depth=3 / tu-intra-depth=3 / limit-tu=0 / qg-size=16 / qpmax=69 / qpmin=0 / ––- / cpuid=1111039 / frame-threads=5 / numa-pools=+ / log-level=2 / input-csp=1 / input-res=1920x1080 / interlace=0 / level-idc=0 / high-tier=1 / uhd-bd=0 / no-allow-non-conformance / no-repeat-headers / no-aud / no-hrd / info / hash=0 / no-temporal-layers / lookahead-slices=0 / no-splice / no-intra-refresh / no-ssim-rd / signhide / no-tskip / max-merge=4 / temporal-mvp / no-frame-dup / no-hme / no-analyze-src-pics / no-sao-non-deblock / selective-sao=0 / no-early-skip / no-rskip / no-fast-intra / no-tskip-fast / no-splitrd-skip / zone-count=0 / no-strict-cbr / no-rc-grain / no-const-vbv / sar=0 / overscan=0 / videoformat=5 / range=0 / colorprim=1 / transfer=1 / colormatrix=1 / chromaloc=0 / display-window=0 / cll=0,0 / min-luma=0 / max-luma=1023 / log2-max-poc-lsb=8 / vui-timing-info / vui-hrd-info / slices=1 / no-opt-qp-pps / no-opt-ref-list-length-pps / no-multi-pass-opt-rps / scenecut-bias=0.05 / hist-threshold=0.03 / no-opt-cu-delta-qp / no-aq-motion / no-hdr10 / no-hdr10-opt / no-dhdr10-opt / no-idr-recovery-sei / analysis-reuse-level=0 / analysis-save-reuse-level=0 / analysis-load-reuse-level=0 / scale-factor=0 / refine-intra=0 / refine-inter=0 / refine-mv=1 / refine-ctu-distortion=0 / no-limit-sao / ctu-info=0 / no-lowpass-dct / refine-analysis-type=0 / copy-pic=1 / max-ausize-factor=1.0 / no-dynamic-refine / no-single-sei / no-hevc-aq / no-svt / no-field / qp-adaptation-range=1.00 / scenecut-aware-qp=0conformance-window-offsets / right=0 / bottom=0 / decoder-max-rate=0 / no-vbv-live-multi-pass
Language : English
Default : Yes
Forced : Yes
Color range : Limited
Color primaries : BT.709
Transfer characteristics : BT.709
Matrix coefficients : BT.709

Audio
ID : 2
Format : FLAC
Format/Info : Free Lossless Audio Codec
Codec ID : A_FLAC
Duration : 24 min 2 s
Bit rate mode : Variable
Bit rate : 1 398 kb/s
Channel(s) : 2 channels
Channel layout : L R
Sampling rate : 48.0 kHz
Frame rate : 11.719 FPS (4096 SPF)
Bit depth : 24 bits
Compression mode : Lossless
Stream size : 240 MiB (23%)
Title : JPN
Writing library : libFLAC 1.3.2 (UTC 2017-01-01)
Language : Japanese
Default : Yes
Forced : Yes

Text
ID : 3
Format : ASS
Codec ID : S_TEXT/ASS
Codec ID/Info : Advanced Sub Station Alpha
Duration : 23 min 45 s
Bit rate : 15.6 kb/s
Frame rate : 8.274 FPS
Count of elements : 11795
Compression mode : Lossless
Stream size : 2.65 MiB (0%)
Default : Yes
Forced : Yes

Menu
00:00:00.000 : en:Intro
00:01:18.412 : en:OP
00:02:48.043 : en:Part A
00:12:47.058 : en:Part B
00:21:29.830 : en:ED
00:23:11.932 : en:Outro





Lycoris Recoil - S01E07


Lycoris Recoil - S01E07


Lycoris Recoil - S01E07


Lycoris Recoil - S01E07